  0
SECTION
  2
HEADER
  9
$ACADVER
  1
AC1015
  9
$ACADMAINTVER
 70
     6
  9
$DWGCODEPAGE
  3
ANSI_1252
  9
$INSBASE
 10
0.0
 20
0.0
 30
0.0
  9
$EXTMIN
 10
-0.00000000000014
 20
0.0
 30
0.0
  9
$EXTMAX
 10
1050.000000000001
 20
1485.000000000001
 30
0.0
  9
$LIMMIN
 10
0.0
 20
0.0
  9
$LIMMAX
 10
12.0
 20
9.0
  9
$ORTHOMODE
 70
     0
  9
$REGENMODE
 70
     1
  9
$FILLMODE
 70
     1
  9
$QTEXTMODE
 70
     0
  9
$MIRRTEXT
 70
     1
  9
$LTSCALE
 40
1.0
  9
$ATTMODE
 70
     1
  9
$TEXTSIZE
 40
0.2
  9
$TRACEWID
 40
0.05
  9
$TEXTSTYLE
  7
Standard
  9
$CLAYER
  8
0
  9
$CELTYPE
  6
ByLayer
  9
$CECOLOR
 62
   256
  9
$CELTSCALE
 40
1.0
  9
$DISPSILH
 70
     0
  9
$DIMSCALE
 40
1.0
  9
$DIMASZ
 40
0.18
  9
$DIMEXO
 40
0.0625
  9
$DIMDLI
 40
0.38
  9
$DIMRND
 40
0.0
  9
$DIMDLE
 40
0.0
  9
$DIMEXE
 40
0.18
  9
$DIMTP
 40
0.0
  9
$DIMTM
 40
0.0
  9
$DIMTXT
 40
0.18
  9
$DIMCEN
 40
0.09
  9
$DIMTSZ
 40
0.0
  9
$DIMTOL
 70
     0
  9
$DIMLIM
 70
     0
  9
$DIMTIH
 70
     1
  9
$DIMTOH
 70
     1
  9
$DIMSE1
 70
     0
  9
$DIMSE2
 70
     0
  9
$DIMTAD
 70
     0
  9
$DIMZIN
 70
     0
  9
$DIMBLK
  1

  9
$DIMASO
 70
     1
  9
$DIMSHO
 70
     1
  9
$DIMPOST
  1

  9
$DIMAPOST
  1

  9
$DIMALT
 70
     0
  9
$DIMALTD
 70
     2
  9
$DIMALTF
 40
25.4
  9
$DIMLFAC
 40
1.0
  9
$DIMTOFL
 70
     0
  9
$DIMTVP
 40
0.0
  9
$DIMTIX
 70
     0
  9
$DIMSOXD
 70
     0
  9
$DIMSAH
 70
     0
  9
$DIMBLK1
  1

  9
$DIMBLK2
  1

  9
$DIMSTYLE
  2
Standard
  9
$DIMCLRD
 70
     0
  9
$DIMCLRE
 70
     0
  9
$DIMCLRT
 70
     0
  9
$DIMTFAC
 40
1.0
  9
$DIMGAP
 40
0.09
  9
$DIMJUST
 70
     0
  9
$DIMSD1
 70
     0
  9
$DIMSD2
 70
     0
  9
$DIMTOLJ
 70
     1
  9
$DIMTZIN
 70
     0
  9
$DIMALTZ
 70
     0
  9
$DIMALTTZ
 70
     0
  9
$DIMUPT
 70
     0
  9
$DIMDEC
 70
     4
  9
$DIMTDEC
 70
     4
  9
$DIMALTU
 70
     2
  9
$DIMALTTD
 70
     2
  9
$DIMTXSTY
  7
Standard
  9
$DIMAUNIT
 70
     0
  9
$DIMADEC
 70
     0
  9
$DIMALTRND
 40
0.0
  9
$DIMAZIN
 70
     0
  9
$DIMDSEP
 70
    46
  9
$DIMATFIT
 70
     3
  9
$DIMFRAC
 70
     0
  9
$DIMLDRBLK
  1

  9
$DIMLUNIT
 70
     2
  9
$DIMLWD
 70
    -2
  9
$DIMLWE
 70
    -2
  9
$DIMTMOVE
 70
     0
  9
$LUNITS
 70
     2
  9
$LUPREC
 70
     4
  9
$SKETCHINC
 40
0.1
  9
$FILLETRAD
 40
0.5
  9
$AUNITS
 70
     0
  9
$AUPREC
 70
     0
  9
$MENU
  1
.
  9
$ELEVATION
 40
0.0
  9
$PELEVATION
 40
0.0
  9
$THICKNESS
 40
0.0
  9
$LIMCHECK
 70
     0
  9
$CHAMFERA
 40
0.5
  9
$CHAMFERB
 40
0.5
  9
$CHAMFERC
 40
1.0
  9
$CHAMFERD
 40
0.0
  9
$SKPOLY
 70
     0
  9
$TDCREATE
 40
2456997.441817269
  9
$TDUCREATE
 40
2456997.400150602
  9
$TDUPDATE
 40
2456997.441817442
  9
$TDUUPDATE
 40
2456997.400150775
  9
$TDINDWG
 40
0.0000000116
  9
$TDUSRTIMER
 40
0.0000000116
  9
$USRTIMER
 70
     1
  9
$ANGBASE
 50
0.0
  9
$ANGDIR
 70
     0
  9
$PDMODE
 70
     0
  9
$PDSIZE
 40
0.0
  9
$PLINEWID
 40
0.0
  9
$SPLFRAME
 70
     0
  9
$SPLINETYPE
 70
     6
  9
$SPLINESEGS
 70
     8
  9
$HANDSEED
  5
25D
  9
$SURFTAB1
 70
     6
  9
$SURFTAB2
 70
     6
  9
$SURFTYPE
 70
     6
  9
$SURFU
 70
     6
  9
$SURFV
 70
     6
  9
$UCSBASE
  2

  9
$UCSNAME
  2

  9
$UCSORG
 10
0.0
 20
0.0
 30
0.0
  9
$UCSXDIR
 10
1.0
 20
0.0
 30
0.0
  9
$UCSYDIR
 10
0.0
 20
1.0
 30
0.0
  9
$UCSORTHOREF
  2

  9
$UCSORTHOVIEW
 70
     0
  9
$UCSORGTOP
 10
0.0
 20
0.0
 30
0.0
  9
$UCSORGBOTTOM
 10
0.0
 20
0.0
 30
0.0
  9
$UCSORGLEFT
 10
0.0
 20
0.0
 30
0.0
  9
$UCSORGRIGHT
 10
0.0
 20
0.0
 30
0.0
  9
$UCSORGFRONT
 10
0.0
 20
0.0
 30
0.0
  9
$UCSORGBACK
 10
0.0
 20
0.0
 30
0.0
  9
$PUCSBASE
  2

  9
$PUCSNAME
  2

  9
$PUCSORG
 10
0.0
 20
0.0
 30
0.0
  9
$PUCSXDIR
 10
1.0
 20
0.0
 30
0.0
  9
$PUCSYDIR
 10
0.0
 20
1.0
 30
0.0
  9
$PUCSORTHOREF
  2

  9
$PUCSORTHOVIEW
 70
     0
  9
$PUCSORGTOP
 10
0.0
 20
0.0
 30
0.0
  9
$PUCSORGBOTTOM
 10
0.0
 20
0.0
 30
0.0
  9
$PUCSORGLEFT
 10
0.0
 20
0.0
 30
0.0
  9
$PUCSORGRIGHT
 10
0.0
 20
0.0
 30
0.0
  9
$PUCSORGFRONT
 10
0.0
 20
0.0
 30
0.0
  9
$PUCSORGBACK
 10
0.0
 20
0.0
 30
0.0
  9
$USERI1
 70
     0
  9
$USERI2
 70
     0
  9
$USERI3
 70
     0
  9
$USERI4
 70
     0
  9
$USERI5
 70
     0
  9
$USERR1
 40
18.1
  9
$USERR2
 40
0.0
  9
$USERR3
 40
0.0
  9
$USERR4
 40
0.0
  9
$USERR5
 40
0.0
  9
$WORLDVIEW
 70
     1
  9
$SHADEDGE
 70
     3
  9
$SHADEDIF
 70
    70
  9
$TILEMODE
 70
     1
  9
$MAXACTVP
 70
    64
  9
$PINSBASE
 10
0.0
 20
0.0
 30
0.0
  9
$PLIMCHECK
 70
     0
  9
$PEXTMIN
 10
1.00000000000000E+20
 20
1.00000000000000E+20
 30
1.00000000000000E+20
  9
$PEXTMAX
 10
-1.00000000000000E+20
 20
-1.00000000000000E+20
 30
-1.00000000000000E+20
  9
$PLIMMIN
 10
0.0
 20
0.0
  9
$PLIMMAX
 10
12.0
 20
9.0
  9
$UNITMODE
 70
     0
  9
$VISRETAIN
 70
     1
  9
$PLINEGEN
 70
     0
  9
$PSLTSCALE
 70
     1
  9
$TREEDEPTH
 70
  3020
  9
$CMLSTYLE
  2
Standard
  9
$CMLJUST
 70
     0
  9
$CMLSCALE
 40
1.0
  9
$PROXYGRAPHICS
 70
     1
  9
$MEASUREMENT
 70
     1
  9
$CELWEIGHT
370
    -1
  9
$ENDCAPS
280
     0
  9
$JOINSTYLE
280
     0
  9
$LWDISPLAY
290
     0
  9
$INSUNITS
 70
     4
  9
$HYPERLINKBASE
  1

  9
$STYLESHEET
  1

  9
$XEDIT
290
     1
  9
$CEPSNTYPE
380
     0
  9
$PSTYLEMODE
290
     1
  9
$FINGERPRINTGUID
  2
{7EED0D31-3933-4DB2-BE68-DD07E9132B5F}
  9
$VERSIONGUID
  2
{FAEB1C32-E019-11D5-929B-00C0DF256EC4}
  9
$EXTNAMES
290
     1
  9
$PSVPSCALE
 40
0.0
  9
$OLESTARTUP
290
     0
  0
ENDSEC
  0
SECTION
  2
CLASSES
  0
CLASS
  1
ACDBDICTIONARYWDFLT
  2
AcDbDictionaryWithDefault
  3
ObjectDBX Classes
 90
        0
280
     0
281
     0
  0
CLASS
  1
VISUALSTYLE
  2
AcDbVisualStyle
  3
ObjectDBX Classes
 90
     4095
280
     0
281
     0
  0
CLASS
  1
MATERIAL
  2
AcDbMaterial
  3
ObjectDBX Classes
 90
     1153
280
     0
281
     0
  0
CLASS
  1
DICTIONARYVAR
  2
AcDbDictionaryVar
  3
ObjectDBX Classes
 90
        0
280
     0
281
     0
  0
CLASS
  1
ACDBPLACEHOLDER
  2
AcDbPlaceHolder
  3
ObjectDBX Classes
 90
        0
280
     0
281
     0
  0
CLASS
  1
LAYOUT
  2
AcDbLayout
  3
ObjectDBX Classes
 90
        0
280
     0
281
     0
  0
ENDSEC
  0
SECTION
  2
TABLES
  0
TABLE
  2
VPORT
  5
8
330
0
100
AcDbSymbolTable
 70
     1
  0
VPORT
  5
29
330
8
100
AcDbSymbolTableRecord
100
AcDbViewportTableRecord
  2
*Active
 70
     0
 10
0.0
 20
0.0
 11
1.0
 21
1.0
 12
525.0000000000003
 22
742.5000000000005
 13
0.0
 23
0.0
 14
0.5
 24
0.5
 15
0.5
 25
0.5
 16
0.0
 26
0.0
 36
1.0
 17
0.0
 27
0.0
 37
0.0
 40
1633.500000000001
 41
1.60267857142857
 42
50.0
 43
0.0
 44
0.0
 50
0.0
 51
0.0
 71
     0
 72
   100
 73
     1
 74
     3
 75
     0
 76
     0
 77
     0
 78
     0
281
     0
 65
     1
110
0.0
120
0.0
130
0.0
111
1.0
121
0.0
131
0.0
112
0.0
122
1.0
132
0.0
 79
     0
146
0.0
  0
ENDTAB
  0
TABLE
  2
LTYPE
  5
5
330
0
100
AcDbSymbolTable
 70
     8
  0
LTYPE
  5
14
330
5
100
AcDbSymbolTableRecord
100
AcDbLinetypeTableRecord
  2
ByBlock
 70
     0
  3

 72
    65
 73
     0
 40
0.0
  0
LTYPE
  5
15
330
5
100
AcDbSymbolTableRecord
100
AcDbLinetypeTableRecord
  2
ByLayer
 70
     0
  3

 72
    65
 73
     0
 40
0.0
  0
LTYPE
  5
16
330
5
100
AcDbSymbolTableRecord
100
AcDbLinetypeTableRecord
  2
Continuous
 70
     0
  3
Solid line
 72
    65
 73
     0
 40
0.0
  0
LTYPE
  5
3F
330
5
100
AcDbSymbolTableRecord
100
AcDbLinetypeTableRecord
  2
DASHED
 70
     0
  3
Dashed
 72
    65
 73
     2
 40
15.0
 49
7.0
 74
     0
 49
-8.0
 74
     0
  0
LTYPE
  5
40
330
5
100
AcDbSymbolTableRecord
100
AcDbLinetypeTableRecord
  2
DOTTED
 70
     0
  3
Dotted
 72
    65
 73
     2
 40
1.0
 49
0.0
 74
     0
 49
-1.0
 74
     0
  0
LTYPE
  5
41
330
5
100
AcDbSymbolTableRecord
100
AcDbLinetypeTableRecord
  2
DOT_CENTER
 70
     0
  3
Dot_Center
 72
    65
 73
     4
 40
14.0
 49
12.0
 74
     0
 49
-1.0
 74
     0
 49
0.0
 74
     0
 49
-1.0
 74
     0
  0
LTYPE
  5
42
330
5
100
AcDbSymbolTableRecord
100
AcDbLinetypeTableRecord
  2
LONG_DASHED
 70
     0
  3
Long_Dashed
 72
    65
 73
     2
 40
15.0
 49
10.0
 74
     0
 49
-5.0
 74
     0
  0
LTYPE
  5
43
330
5
100
AcDbSymbolTableRecord
100
AcDbLinetypeTableRecord
  2
DASH_CENTER
 70
     0
  3
Dash_Center
 72
    65
 73
     4
 40
14.0
 49
11.0
 74
     0
 49
-1.0
 74
     0
 49
1.0
 74
     0
 49
-1.0
 74
     0
  0
LTYPE
  5
44
330
5
100
AcDbSymbolTableRecord
100
AcDbLinetypeTableRecord
  2
PHANTOM
 70
     0
  3
Phantom
 72
    65
 73
     6
 40
13.0
 49
10.0
 74
     0
 49
-1.0
 74
     0
 49
0.0
 74
     0
 49
-1.0
 74
     0
 49
0.0
 74
     0
 49
-1.0
 74
     0
  0
LTYPE
  5
45
330
5
100
AcDbSymbolTableRecord
100
AcDbLinetypeTableRecord
  2
CENTER_DASH_DASH
 70
     0
  3
Center_Dash_Dash
 72
    65
 73
     6
 40
14.0
 49
9.0
 74
     0
 49
-1.0
 74
     0
 49
1.0
 74
     0
 49
-1.0
 74
     0
 49
1.0
 74
     0
 49
-1.0
 74
     0
  0
ENDTAB
  0
TABLE
  2
LAYER
  5
2
330
0
100
AcDbSymbolTable
 70
     2
  0
LAYER
  5
10
330
2
100
AcDbSymbolTableRecord
100
AcDbLayerTableRecord
  2
0
 70
     0
 62
     7
  6
Continuous
370
    -3
390
F
  0
LAYER
  5
46
330
2
100
AcDbSymbolTableRecord
100
AcDbLayerTableRecord
  2
1
 70
     0
 62
     7
  6
Continuous
370
    -3
390
F
  0
ENDTAB
  0
TABLE
  2
STYLE
  5
3
330
0
100
AcDbSymbolTable
 70
     4
  0
STYLE
  5
11
330
3
100
AcDbSymbolTableRecord
100
AcDbTextStyleTableRecord
  2
Standard
 70
     0
 40
0.0
 41
1.0
 50
0.0
 71
     0
 42
0.2
  3
txt
  4

  0
STYLE
  5
8F
330
3
100
AcDbSymbolTableRecord
100
AcDbTextStyleTableRecord
  2
CONVERTER_11
 70
     0
 40
0.0
 41
1.2
 50
0.0
 71
     0
 42
0.2
  3
ARIAL.TTF
  4

  0
STYLE
  5
98
330
3
100
AcDbSymbolTableRecord
100
AcDbTextStyleTableRecord
  2
CONVERTER_12
 70
     0
 40
0.0
 41
1.38
 50
0.0
 71
     0
 42
0.2
  3
ARIAL.TTF
  4

  0
STYLE
  5
1D7
330
3
100
AcDbSymbolTableRecord
100
AcDbTextStyleTableRecord
  2
CONVERTER_13
 70
     0
 40
0.0
 41
0.95
 50
0.0
 71
     0
 42
0.2
  3
simplex.shx
  4

  0
ENDTAB
  0
TABLE
  2
VIEW
  5
6
330
0
100
AcDbSymbolTable
 70
     0
  0
ENDTAB
  0
TABLE
  2
UCS
  5
7
330
0
100
AcDbSymbolTable
 70
     0
  0
ENDTAB
  0
TABLE
  2
APPID
  5
9
330
0
100
AcDbSymbolTable
 70
     1
  0
APPID
  5
12
330
9
100
AcDbSymbolTableRecord
100
AcDbRegAppTableRecord
  2
ACAD
 70
     0
  0
ENDTAB
  0
TABLE
  2
DIMSTYLE
  5
A
330
0
100
AcDbSymbolTable
 70
     8
100
AcDbDimStyleTable
  0
DIMSTYLE
105
27
330
A
100
AcDbSymbolTableRecord
100
AcDbDimStyleTableRecord
  2
Standard
 70
     0
178
     0
340
11
  0
DIMSTYLE
105
1DB
102
{ACAD_REACTORS
330
1DC
102
}
330
A
100
AcDbSymbolTableRecord
100
AcDbDimStyleTableRecord
  2
ME10_DIM_10
 70
     0
 41
15.0
 42
2.5
 44
5.0
 73
     0
 74
     0
 77
     1
 78
     8
140
15.0
147
10.0
172
     1
173
     1
174
     1
175
     1
176
     2
177
     2
271
     2
178
     4
271
     2
340
1D7
  0
DIMSTYLE
105
1E8
102
{ACAD_REACTORS
330
1E9
102
}
330
A
100
AcDbSymbolTableRecord
100
AcDbDimStyleTableRecord
  2
ME10_DIM_11
 70
     0
 41
15.0
 42
2.5
 44
5.0
 73
     0
 74
     0
 77
     1
 78
     8
140
15.0
147
10.0
172
     1
173
     1
174
     1
175
     1
176
     2
177
     2
271
     2
178
     4
271
     2
340
1D7
  0
DIMSTYLE
105
1F3
102
{ACAD_REACTORS
330
1F4
102
}
330
A
100
AcDbSymbolTableRecord
100
AcDbDimStyleTableRecord
  2
ME10_DIM_12
 70
     0
 41
15.0
 42
2.5
 44
5.0
 73
     0
 74
     0
 77
     1
 78
     8
140
15.0
147
10.0
172
     1
173
     1
174
     1
175
     1
176
     2
177
     2
271
     2
178
     4
271
     2
340
1D7
  0
DIMSTYLE
105
200
102
{ACAD_REACTORS
330
201
102
}
330
A
100
AcDbSymbolTableRecord
100
AcDbDimStyleTableRecord
  2
ME10_DIM_13
 70
     0
 41
15.0
 42
2.5
 44
5.0
 73
     0
 74
     0
 77
     1
 78
     8
140
15.0
147
10.0
172
     1
173
     1
174
     1
175
     1
176
     2
177
     2
271
     2
178
     4
271
     2
340
1D7
  0
DIMSTYLE
105
20B
102
{ACAD_REACTORS
330
20C
102
}
330
A
100
AcDbSymbolTableRecord
100
AcDbDimStyleTableRecord
  2
ME10_DIM_14
 70
     0
 41
15.0
 42
2.5
 44
5.0
 73
     0
 74
     0
 77
     1
 78
     8
140
15.0
147
10.0
172
     1
173
     1
174
     1
175
     1
176
     2
177
     2
271
     2
178
     4
271
     2
340
1D7
  0
DIMSTYLE
105
218
102
{ACAD_REACTORS
330
219
102
}
330
A
100
AcDbSymbolTableRecord
100
AcDbDimStyleTableRecord
  2
ME10_DIM_15
 70
     0
 41
15.0
 42
2.5
 44
5.0
 73
     0
 74
     0
 77
     1
 78
     8
140
15.0
147
10.0
172
     1
173
     1
174
     1
175
     1
176
     2
177
     2
271
     2
178
     4
271
     2
340
1D7
  0
DIMSTYLE
105
223
102
{ACAD_REACTORS
330
224
102
}
330
A
100
AcDbSymbolTableRecord
100
AcDbDimStyleTableRecord
  2
ME10_DIM_16
 70
     0
 41
15.0
 42
2.5
 44
5.0
 73
     0
 74
     0
 77
     1
 78
     8
140
15.0
147
10.0
172
     1
173
     1
174
     1
175
     1
176
     2
177
     2
271
     2
178
     4
271
     2
340
1D7
  0
ENDTAB
  0
TABLE
  2
BLOCK_RECORD
  5
1
330
0
100
AcDbSymbolTable
 70
    11
  0
BLOCK_RECORD
  5
1F
330
1
100
AcDbSymbolTableRecord
100
AcDbBlockTableRecord
  2
*Model_Space
340
22
  0
BLOCK_RECORD
  5
1B
330
1
100
AcDbSymbolTableRecord
100
AcDbBlockTableRecord
  2
*Paper_Space
340
1E
  0
BLOCK_RECORD
  5
23
330
1
100
AcDbSymbolTableRecord
100
AcDbBlockTableRecord
  2
*Paper_Space0
340
26
  0
BLOCK_RECORD
  5
47
330
1
100
AcDbSymbolTableRecord
100
AcDbBlockTableRecord
  2
_formato_A4
340
0
102
{BLKREFS
331
4B
102
}
  0
BLOCK_RECORD
  5
4A
330
1
100
AcDbSymbolTableRecord
100
AcDbBlockTableRecord
  2
A4
340
0
102
{BLKREFS
331
4E
102
}
  0
BLOCK_RECORD
  5
1D1
330
1
100
AcDbSymbolTableRecord
100
AcDbBlockTableRecord
  2
*D3
340
0
  0
BLOCK_RECORD
  5
1DD
330
1
100
AcDbSymbolTableRecord
100
AcDbBlockTableRecord
  2
*D4
340
0
  0
BLOCK_RECORD
  5
1EA
330
1
100
AcDbSymbolTableRecord
100
AcDbBlockTableRecord
  2
*D5
340
0
  0
BLOCK_RECORD
  5
1F5
330
1
100
AcDbSymbolTableRecord
100
AcDbBlockTableRecord
  2
*D6
340
0
  0
BLOCK_RECORD
  5
202
330
1
100
AcDbSymbolTableRecord
100
AcDbBlockTableRecord
  2
*D7
340
0
  0
BLOCK_RECORD
  5
20D
330
1
100
AcDbSymbolTableRecord
100
AcDbBlockTableRecord
  2
*D8
340
0
  0
BLOCK_RECORD
  5
21A
330
1
100
AcDbSymbolTableRecord
100
AcDbBlockTableRecord
  2
*D9
340
0
  0
BLOCK_RECORD
  5
225
330
1
100
AcDbSymbolTableRecord
100
AcDbBlockTableRecord
  2
*D10
340
0
102
{BLKREFS
331
22D
102
}
  0
ENDTAB
  0
ENDSEC
  0
SECTION
  2
BLOCKS
  0
BLOCK
  5
20
330
1F
100
AcDbEntity
  8
0
100
AcDbBlockBegin
  2
*Model_Space
 70
     0
 10
0.0
 20
0.0
 30
0.0
  3
*Model_Space
  1

  0
ENDBLK
  5
21
330
1F
100
AcDbEntity
  8
0
100
AcDbBlockEnd
  0
BLOCK
  5
1C
330
1B
100
AcDbEntity
 67
     1
  8
0
100
AcDbBlockBegin
  2
*Paper_Space
 70
     0
 10
0.0
 20
0.0
 30
0.0
  3
*Paper_Space
  1

  0
ENDBLK
  5
1D
330
1B
100
AcDbEntity
 67
     1
  8
0
100
AcDbBlockEnd
  0
BLOCK
  5
24
330
23
100
AcDbEntity
  8
0
100
AcDbBlockBegin
  2
*Paper_Space0
 70
     0
 10
0.0
 20
0.0
 30
0.0
  3
*Paper_Space0
  1

  0
ENDBLK
  5
25
330
23
100
AcDbEntity
  8
0
100
AcDbBlockEnd
  0
BLOCK
  5
48
330
47
100
AcDbEntity
  8
0
100
AcDbBlockBegin
  2
_formato_A4
 70
     0
 10
210.0000000000001
 20
0.0
 30
0.0
  3
_formato_A4
  1

  0
LINE
  5
4F
330
47
100
AcDbEntity
  8
1
  6
Continuous
 62
     7
100
AcDbLine
 10
21.00000000000009
 20
20.0
 30
0.0
 11
205.0000000000001
 21
20.0
 31
0.0
  0
LINE
  5
50
330
47
100
AcDbEntity
  8
1
  6
Continuous
 62
     7
100
AcDbLine
 10
21.00000000000009
 20
4.9999999999998
 30
0.0
 11
205.0000000000001
 21
4.9999999999998
 31
0.0
  0
LINE
  5
51
102
{ACAD_REACTORS
330
9A
102
}
330
47
100
AcDbEntity
  8
1
  6
Continuous
 62
     7
100
AcDbLine
 10
195.8428748399058
 20
10.55800208038042
 30
0.0
 11
194.5095415065727
 21
9.7887713111497
 31
0.0
  0
LINE
  5
52
102
{ACAD_REACTORS
330
9A
102
}
330
47
100
AcDbEntity
  8
1
  6
Continuous
 62
     7
100
AcDbLine
 10
194.6763006887426
 20
10.654636532648
 30
0.0
 11
195.5097265375795
 21
11.1354591377463
 31
0.0
  0
LINE
  5
53
102
{ACAD_REACTORS
330
9A
102
}
330
47
100
AcDbEntity
  8
1
  6
Continuous
 62
     7
100
AcDbLine
 10
194.6763006887426
 20
12.1666666666666
 30
0.0
 11
194.6763006887426
 21
10.654636532648
 31
0.0
  0
LINE
  5
54
102
{ACAD_REACTORS
330
9A
102
}
330
47
100
AcDbEntity
  8
1
  6
Continuous
 62
     7
100
AcDbLine
 10
195.6763006887426
 20
12.1666666666666
 30
0.0
 11
194.6763006887426
 21
12.1666666666666
 31
0.0
  0
LINE
  5
55
102
{ACAD_REACTORS
330
9A
102
}
330
47
100
AcDbEntity
  8
1
  6
Continuous
 62
     7
100
AcDbLine
 10
194.6763006887426
 20
12.8333333333332
 30
0.0
 11
195.6763006887426
 21
12.8333333333332
 31
0.0
  0
LINE
  5
56
102
{ACAD_REACTORS
330
9A
102
}
330
47
100
AcDbEntity
  8
1
  6
Continuous
 62
     7
100
AcDbLine
 10
194.6763006887426
 20
14.345363467352
 30
0.0
 11
194.6763006887426
 21
12.8333333333332
 31
0.0
  0
LINE
  5
57
102
{ACAD_REACTORS
330
9A
102
}
330
47
100
AcDbEntity
  8
1
  6
Continuous
 62
     7
100
AcDbLine
 10
195.5097265375795
 20
13.86454086225371
 30
0.0
 11
194.6763006887426
 21
14.345363467352
 31
0.0
  0
LINE
  5
58
102
{ACAD_REACTORS
330
9A
102
}
330
47
100
AcDbEntity
  8
1
  6
Continuous
 62
     7
100
AcDbLine
 10
194.5095415065727
 20
15.21122868885021
 30
0.0
 11
195.8428748399058
 21
14.4419979196195
 31
0.0
  0
LINE
  5
59
102
{ACAD_REACTORS
330
9B
102
}
330
47
100
AcDbEntity
  8
1
  6
Continuous
 62
     7
100
AcDbLine
 10
187.3429673554095
 20
10.8467306090632
 30
0.0
 11
187.3429673554095
 21
14.1532693909366
 31
0.0
  0
LINE
  5
5A
102
{ACAD_REACTORS
330
9B
102
}
330
47
100
AcDbEntity
  8
1
  6
Continuous
 62
     7
100
AcDbLine
 10
188.0096340220761
 20
11.0392519172633
 30
0.0
 11
188.0096340220761
 21
10.8467306090632
 31
0.0
  0
LINE
  5
5B
102
{ACAD_REACTORS
330
9B
102
}
330
47
100
AcDbEntity
  8
1
  6
Continuous
 62
     7
100
AcDbLine
 10
188.0096340220761
 20
14.1532693909366
 30
0.0
 11
188.0096340220761
 21
11.0392519172633
 31
0.0
  0
LINE
  5
5C
102
{ACAD_REACTORS
330
9C
102
}
330
47
100
AcDbEntity
  8
1
  6
Continuous
 62
     7
100
AcDbLine
 10
191.1763932042462
 20
8.44261746499592
 30
0.0
 11
189.009819053083
 21
9.69256409066702
 31
0.0
  0
LINE
  5
5D
102
{ACAD_REACTORS
330
9C
102
}
330
47
100
AcDbEntity
  8
1
  6
Continuous
 62
     7
100
AcDbLine
 10
189.3429673554095
 20
10.2700211480327
 30
0.0
 11
191.5095415065727
 21
9.0200745223616
 31
0.0
  0
LINE
  5
5E
102
{ACAD_REACTORS
330
9C
102
}
330
47
100
AcDbEntity
  8
1
  6
Continuous
 62
     7
100
AcDbLine
 10
189.3429673554095
 20
14.92250016016732
 30
0.0
 11
189.3429673554095
 21
10.2700211480327
 31
0.0
  0
LINE
  5
5F
102
{ACAD_REACTORS
330
9C
102
}
330
47
100
AcDbEntity
  8
1
  6
Continuous
 62
     7
100
AcDbLine
 10
188.6763006887426
 20
10.2700211480325
 30
0.0
 11
188.6763006887426
 21
14.92250016016732
 31
0.0
  0
LINE
  5
60
102
{ACAD_REACTORS
330
9D
102
}
330
47
100
AcDbEntity
  8
1
  6
Continuous
 62
     7
100
AcDbLine
 10
192.848533671786
 20
15.8637004182722
 30
0.0
 11
191.6763006887426
 21
13.8333333333332
 31
0.0
  0
LINE
  5
61
102
{ACAD_REACTORS
330
9D
102
}
330
47
100
AcDbEntity
  8
1
  6
Continuous
 62
     7
100
AcDbLine
 10
193.3429673554095
 20
9.3082690706018
 30
0.0
 11
193.3429673554095
 21
15.73121731203452
 31
0.0
  0
LINE
  5
62
102
{ACAD_REACTORS
330
9D
102
}
330
47
100
AcDbEntity
  8
1
  6
Continuous
 62
     7
100
AcDbLine
 10
192.6763006887426
 20
12.5
 30
0.0
 11
192.6763006887426
 21
9.3082690706018
 31
0.0
  0
LINE
  5
63
102
{ACAD_REACTORS
330
9D
102
}
330
47
100
AcDbEntity
  8
1
  6
Continuous
 62
     7
100
AcDbLine
 10
190.6763006887426
 20
10.847585072633
 30
0.0
 11
190.6763006887426
 21
12.5
 31
0.0
  0
LINE
  5
64
102
{ACAD_REACTORS
330
9D
102
}
330
47
100
AcDbEntity
  8
1
  6
Continuous
 62
     7
100
AcDbLine
 10
190.0096340220761
 20
12.5
 30
0.0
 11
190.0096340220761
 21
10.847585072633
 31
0.0
  0
LINE
  5
65
102
{ACAD_REACTORS
330
9D
102
}
330
47
100
AcDbEntity
  8
1
  6
Continuous
 62
     7
100
AcDbLine
 10
190.5040677056996
 20
15.8637004182722
 30
0.0
 11
191.6763006887426
 21
13.8333333333332
 31
0.0
  0
LINE
  5
66
102
{ACAD_REACTORS
330
9D
102
}
330
47
100
AcDbEntity
  8
1
  6
Continuous
 62
     7
100
AcDbLine
 10
190.0096340220761
 20
12.5
 30
0.0
 11
190.0096340220761
 21
15.73121731203452
 31
0.0
  0
LINE
  5
67
330
47
100
AcDbEntity
  8
1
  6
Continuous
 62
     7
100
AcDbLine
 10
191.6763006887426
 20
7.5
 30
0.0
 11
183.2598654136013
 21
12.3556357356585
 31
0.0
  0
LINE
  5
68
330
47
100
AcDbEntity
  8
1
  6
Continuous
 62
     7
100
AcDbLine
 10
200.0927359638843
 20
12.3556357356585
 30
0.0
 11
191.6763006887426
 21
7.5
 31
0.0
  0
LINE
  5
69
330
47
100
AcDbEntity
  8
1
  6
Continuous
 62
     7
100
AcDbLine
 10
191.6763006887426
 20
17.5
 30
0.0
 11
200.0927359638843
 21
12.64436426434142
 31
0.0
  0
LINE
  5
6A
330
47
100
AcDbEntity
  8
1
  6
Continuous
 62
     7
100
AcDbLine
 10
183.2598654136013
 20
12.64436426434142
 30
0.0
 11
191.6763006887426
 21
17.5
 31
0.0
  0
LINE
  5
6B
102
{ACAD_REACTORS
330
9D
102
}
330
47
100
AcDbEntity
  8
1
  6
Continuous
 62
     7
100
AcDbLine
 10
190.6763006887426
 20
14.2320508075689
 30
0.0
 11
190.6763006887426
 21
12.5
 31
0.0
  0
LINE
  5
6C
102
{ACAD_REACTORS
330
9D
102
}
330
47
100
AcDbEntity
  8
1
  6
Continuous
 62
     7
100
AcDbLine
 10
191.5319631214452
 20
12.75
 30
0.0
 11
190.6763006887426
 21
14.2320508075689
 31
0.0
  0
LINE
  5
6D
102
{ACAD_REACTORS
330
9D
102
}
330
47
100
AcDbEntity
  8
1
  6
Continuous
 62
     7
100
AcDbLine
 10
192.6763006887426
 20
14.2320508075689
 30
0.0
 11
191.8206382560401
 21
12.75
 31
0.0
  0
LINE
  5
6E
102
{ACAD_REACTORS
330
9D
102
}
330
47
100
AcDbEntity
  8
1
  6
Continuous
 62
     7
100
AcDbLine
 10
192.6763006887426
 20
12.5
 30
0.0
 11
192.6763006887426
 21
14.2320508075689
 31
0.0
  0
LINE
  5
6F
102
{ACAD_REACTORS
330
9A
102
}
330
47
100
AcDbEntity
  8
1
  6
Continuous
 62
     7
100
AcDbLine
 10
194.0096340220761
 20
10.0774998398326
 30
0.0
 11
194.0096340220761
 21
14.92250016016732
 31
0.0
  0
LINE
  5
70
330
47
100
AcDbEntity
  8
1
  6
Continuous
 62
     7
100
AcDbLine
 10
21.00000000000009
 20
292.0000000000002
 30
0.0
 11
21.00000000000009
 21
4.9999999999998
 31
0.0
  0
LINE
  5
71
330
47
100
AcDbEntity
  8
1
  6
Continuous
 62
     7
100
AcDbLine
 10
205.0000000000001
 20
292.0000000000002
 30
0.0
 11
21.00000000000009
 21
292.0000000000002
 31
0.0
  0
LINE
  5
72
330
47
100
AcDbEntity
  8
1
  6
Continuous
 62
     7
100
AcDbLine
 10
205.0000000000001
 20
4.9999999999998
 30
0.0
 11
205.0000000000001
 21
292.0000000000002
 31
0.0
  0
LINE
  5
73
330
47
100
AcDbEntity
  8
1
  6
Continuous
 62
     7
100
AcDbLine
 10
210.0000000000001
 20
297.0000000000002
 30
0.0
 11
-0.00000000000003
 21
297.0000000000002
 31
0.0
  0
LINE
  5
74
330
47
100
AcDbEntity
  8
1
  6
Continuous
 62
     7
100
AcDbLine
 10
-0.00000000000003
 20
297.0000000000002
 30
0.0
 11
-0.00000000000003
 21
0.0
 31
0.0
  0
LINE
  5
75
330
47
100
AcDbEntity
  8
1
  6
Continuous
 62
     7
100
AcDbLine
 10
-0.00000000000003
 20
0.0
 30
0.0
 11
210.0000000000001
 21
0.0
 31
0.0
  0
LINE
  5
76
330
47
100
AcDbEntity
  8
1
  6
Continuous
 62
     7
100
AcDbLine
 10
210.0000000000001
 20
0.0
 30
0.0
 11
210.0000000000001
 21
297.0000000000002
 31
0.0
  0
LINE
  5
77
330
47
100
AcDbEntity
  8
1
  6
Continuous
 62
     7
100
AcDbLine
 10
-0.00000000000003
 20
148.4999999999998
 30
0.0
 11
14.99999999999997
 21
148.4999999999998
 31
0.0
  0
LINE
  5
78
330
47
100
AcDbEntity
  8
1
  6
Continuous
 62
     7
100
AcDbLine
 10
21.00000000000009
 20
9.9999999999998
 30
0.0
 11
51.00000000000009
 21
9.9999999999998
 31
0.0
  0
LINE
  5
79
330
47
100
AcDbEntity
  8
1
  6
Continuous
 62
     7
100
AcDbLine
 10
51.00000000000009
 20
20.0
 30
0.0
 11
51.00000000000009
 21
5.0
 31
0.0
  0
LINE
  5
7A
330
47
100
AcDbEntity
  8
1
  6
Continuous
 62
     7
100
AcDbLine
 10
178.3526013774854
 20
20.0
 30
0.0
 11
178.3526013774854
 21
5.0
 31
0.0
  0
LINE
  5
7B
330
47
100
AcDbEntity
  8
1
  6
Continuous
 62
     7
100
AcDbLine
 10
161.0000000000001
 20
20.0
 30
0.0
 11
161.0000000000001
 21
5.0
 31
0.0
  0
LINE
  5
7C
330
47
100
AcDbEntity
  8
1
  6
Continuous
 62
     7
100
AcDbLine
 10
21.00000000000009
 20
20.0
 30
0.0
 11
21.00000000000009
 21
4.9999999999998
 31
0.0
  0
LINE
  5
7D
330
47
100
AcDbEntity
  8
1
  6
Continuous
 62
     7
100
AcDbLine
 10
21.00000000000009
 20
14.9999999999998
 30
0.0
 11
51.00000000000009
 21
14.9999999999998
 31
0.0
  0
ARC
  5
7E
102
{ACAD_REACTORS
330
9A
102
}
330
47
100
AcDbEntity
  8
1
  6
Continuous
 62
     7
100
AcDbCircle
 10
195.6763006887426
 20
10.8467306090632
 30
0.0
 40
0.3333333333332567
100
AcDbArc
 50
299.9816393688563
 51
119.9816393688162
  0
ARC
  5
7F
102
{ACAD_REACTORS
330
9A
102
}
330
47
100
AcDbEntity
  8
1
  6
Continuous
 62
     7
100
AcDbCircle
 10
195.6763006887426
 20
12.5
 30
0.0
 40
0.3333333333333997
100
AcDbArc
 50
270.0
 51
90.0
  0
ARC
  5
80
102
{ACAD_REACTORS
330
9A
102
}
330
47
100
AcDbEntity
  8
1
  6
Continuous
 62
     7
100
AcDbCircle
 10
195.6763006887426
 20
14.1532693909366
 30
0.0
 40
0.3333333333333094
100
AcDbArc
 50
240.0183606311658
 51
60.0183606311539
  0
ARC
  5
81
102
{ACAD_REACTORS
330
9B
102
}
330
47
100
AcDbEntity
  8
1
  6
Continuous
 62
     7
100
AcDbCircle
 10
187.6763006887426
 20
10.8467306090632
 30
0.0
 40
0.333333333333087
100
AcDbArc
 50
180.0
 51
0.0
  0
ARC
  5
82
102
{ACAD_REACTORS
330
9B
102
}
330
47
100
AcDbEntity
  8
1
  6
Continuous
 62
     7
100
AcDbCircle
 10
187.6763006887426
 20
14.1532693909366
 30
0.0
 40
0.3333333333335133
100
AcDbArc
 50
0.0
 51
180.0
  0
ARC
  5
83
102
{ACAD_REACTORS
330
9C
102
}
330
47
100
AcDbEntity
  8
1
  6
Continuous
 62
     7
100
AcDbCircle
 10
191.3429673554095
 20
8.7313459936787
 30
0.0
 40
0.3333333333333151
100
AcDbArc
 50
240.0183606311269
 51
60.01836063115359
  0
ARC
  5
84
102
{ACAD_REACTORS
330
9C
102
}
330
47
100
AcDbEntity
  8
1
  6
Continuous
 62
     7
100
AcDbCircle
 10
189.0096340220761
 20
14.92250016016732
 30
0.0
 40
0.3333333333333997
100
AcDbArc
 50
0.0
 51
180.0
  0
ARC
  5
85
102
{ACAD_REACTORS
330
9D
102
}
330
47
100
AcDbEntity
  8
1
  6
Continuous
 62
     7
100
AcDbCircle
 10
193.0780011429341
 20
15.73121731203452
 30
0.0
 40
0.2649662124754002
100
AcDbArc
 50
0.0
 51
149.9999999999912
  0
ARC
  5
86
102
{ACAD_REACTORS
330
9D
102
}
330
47
100
AcDbEntity
  8
1
  6
Continuous
 62
     7
100
AcDbCircle
 10
193.0096340220761
 20
9.3082690706018
 30
0.0
 40
0.3333333333335133
100
AcDbArc
 50
180.0
 51
0.0
  0
ARC
  5
87
102
{ACAD_REACTORS
330
9D
102
}
330
47
100
AcDbEntity
  8
1
  6
Continuous
 62
     7
100
AcDbCircle
 10
190.3429673554095
 20
10.847585072633
 30
0.0
 40
0.3333333333333997
100
AcDbArc
 50
180.0
 51
0.0
  0
ARC
  5
88
102
{ACAD_REACTORS
330
9D
102
}
330
47
100
AcDbEntity
  8
1
  6
Continuous
 62
     7
100
AcDbCircle
 10
190.2746002345513
 20
15.73121731203452
 30
0.0
 40
0.2649662124754628
100
AcDbArc
 50
29.99999999998731
 51
180.0
  0
ARC
  5
89
102
{ACAD_REACTORS
330
9A
102
}
330
47
100
AcDbEntity
  8
1
  6
Continuous
 62
     7
100
AcDbCircle
 10
194.3429673554095
 20
10.0774998398326
 30
0.0
 40
0.3333333333333997
100
AcDbArc
 50
180.0
 51
299.9816393688462
  0
ARC
  5
8A
102
{ACAD_REACTORS
330
9A
102
}
330
47
100
AcDbEntity
  8
1
  6
Continuous
 62
     7
100
AcDbCircle
 10
194.3429673554095
 20
14.92250016016732
 30
0.0
 40
0.3333333333333521
100
AcDbArc
 50
60.01836063115314
 51
180.0
  0
ARC
  5
8B
330
47
100
AcDbEntity
  8
1
  6
Continuous
 62
     7
100
AcDbCircle
 10
200.0094488883025
 20
12.5
 30
0.0
 40
0.1666666666668295
100
AcDbArc
 50
299.981639368901
 51
60.01836063108524
  0
ARC
  5
8C
330
47
100
AcDbEntity
  8
1
  6
Continuous
 62
     7
100
AcDbCircle
 10
183.3431524891829
 20
12.5
 30
0.0
 40
0.1666666666666608
100
AcDbArc
 50
119.9816393688555
 51
240.0183606311582
  0
ARC
  5
8D
102
{ACAD_REACTORS
330
9C
102
}
330
47
100
AcDbEntity
  8
1
  6
Continuous
 62
     7
100
AcDbCircle
 10
189.3429673554095
 20
10.2700211480327
 30
0.0
 40
0.666666666666913
100
AcDbArc
 50
180.0000000000173
 51
240.0183606311383
  0
ARC
  5
8E
102
{ACAD_REACTORS
330
9D
102
}
330
47
100
AcDbEntity
  8
1
  6
Continuous
 62
     7
100
AcDbCircle
 10
191.6763006887426
 20
12.8333333333332
 30
0.0
 40
0.1666666666666058
100
AcDbArc
 50
209.9999999999594
 51
330.0000000000553
  0
MTEXT
  5
90
330
47
100
AcDbEntity
  8
1
 62
     7
100
AcDbMText
 10
169.6763006887428
 20
10.06063942075602
 30
0.0
 40
4.5
 41
0.0
 71
     5
 72
     1
  1
1:5
  7
CONVERTER_11
 73
     1
 44
1.32052821128451
  0
MTEXT
  5
91
330
47
100
AcDbEntity
  8
1
 62
     7
100
AcDbMText
 10
169.6763006887428
 20
16.26063942075589
 30
0.0
 40
3.0
 41
0.0
 71
     5
 72
     1
  1
Scale
  7
CONVERTER_11
 73
     1
 44
1.32052821128451
  0
MTEXT
  5
92
330
47
100
AcDbEntity
  8
1
 62
     7
100
AcDbMText
 10
57.27630068874279
 20
12.5
 30
0.0
 40
4.5
 41
0.0
 71
     4
 72
     1
  1
TM 1456 TB\PModular back plate for TM 32A/63A
  7
CONVERTER_11
 73
     1
 44
0.90036014405762
  0
MTEXT
  5
93
330
47
100
AcDbEntity
  8
1
 62
     7
100
AcDbMText
 10
32.60000000000008
 20
7.4999999999998
 30
0.0
 40
3.0
 41
0.0
 71
     4
 72
     1
  1
Radice
  7
CONVERTER_11
 73
     1
 44
1.32052821128451
  0
MTEXT
  5
94
330
47
100
AcDbEntity
  8
1
 62
     7
100
AcDbMText
 10
22.00000000000009
 20
7.4999999999998
 30
0.0
 40
3.0
 41
0.0
 71
     4
 72
     1
  1
Sign.
  7
CONVERTER_11
 73
     1
 44
1.32052821128451
  0
MTEXT
  5
95
330
47
100
AcDbEntity
  8
1
 62
     7
100
AcDbMText
 10
32.60000000000008
 20
12.4999999999998
 30
0.0
 40
3.0
 41
0.0
 71
     4
 72
     1
  1
29/09/11
  7
CONVERTER_11
 73
     1
 44
1.32052821128451
  0
MTEXT
  5
96
330
47
100
AcDbEntity
  8
1
 62
     7
100
AcDbMText
 10
22.00000000000009
 20
12.4999999999998
 30
0.0
 40
3.0
 41
0.0
 71
     4
 72
     1
  1
Date
  7
CONVERTER_11
 73
     1
 44
1.32052821128451
  0
MTEXT
  5
97
330
47
100
AcDbEntity
  8
1
 62
     7
100
AcDbMText
 10
15.99999999999997
 20
151.4999999999998
 30
0.0
 40
4.0
 41
0.0
 71
     5
 72
     1
  1
Diritti riservati      All rights reserved
  7
CONVERTER_11
 11
0.0
 21
1.0
 31
0.0
 73
     1
 44
1.32052821128451
  0
MTEXT
  5
99
330
47
100
AcDbEntity
  8
1
 62
     7
100
AcDbMText
 10
36.00000000000009
 20
17.5
 30
0.0
 40
2.5
 41
0.0
 71
     5
 72
     1
  1
dimensions in mm
  7
CONVERTER_12
 73
     1
 44
0.60024009603842
  0
HATCH
  5
9A
330
47
100
AcDbEntity
  8
1
  6
Continuous
 62
     7
100
AcDbHatch
 10
0.0
 20
0.0
 30
0.0
210
0.0
220
0.0
230
1.0
  2
SOLID
 70
     1
 71
     1
 91
        1
 92
        1
 93
       14
 72
     2
 10
194.3429673554095
 20
14.92250016016732
 40
0.3333333333333521
 50
60.01836063115314
 51
180.0
 73
     1
 72
     1
 10
194.0096340220761
 20
14.92250016016732
 11
194.0096340220761
 21
10.0774998398326
 72
     2
 10
194.3429673554095
 20
10.0774998398326
 40
0.3333333333333997
 50
180.0
 51
299.9816393688462
 73
     1
 72
     1
 10
194.5095415065727
 20
9.788771311149702
 11
195.8428748399058
 21
10.55800208038042
 72
     2
 10
195.6763006887426
 20
10.8467306090632
 40
0.3333333333332567
 50
299.9816393688563
 51
479.9816393688162
 73
     1
 72
     1
 10
195.5097265375795
 20
11.1354591377463
 11
194.6763006887426
 21
10.654636532648
 72
     1
 10
194.6763006887426
 20
10.654636532648
 11
194.6763006887426
 21
12.1666666666666
 72
     1
 10
194.6763006887426
 20
12.1666666666666
 11
195.6763006887426
 21
12.1666666666666
 72
     2
 10
195.6763006887426
 20
12.5
 40
0.3333333333333997
 50
270.0
 51
450.0
 73
     1
 72
     1
 10
195.6763006887426
 20
12.8333333333332
 11
194.6763006887426
 21
12.8333333333332
 72
     1
 10
194.6763006887426
 20
12.8333333333332
 11
194.6763006887426
 21
14.345363467352
 72
     1
 10
194.6763006887426
 20
14.345363467352
 11
195.5097265375795
 21
13.86454086225371
 72
     2
 10
195.6763006887426
 20
14.1532693909366
 40
0.3333333333333094
 50
240.0183606311658
 51
420.0183606311539
 73
     1
 72
     1
 10
195.8428748399058
 20
14.4419979196195
 11
194.5095415065727
 21
15.21122868885021
 97
       14
330
80
330
57
330
56
330
55
330
7F
330
54
330
53
330
52
330
7E
330
51
330
89
330
6F
330
8A
330
58
 75
     0
 76
     1
 98
        1
 10
0.0
 20
0.0
  0
HATCH
  5
9B
330
47
100
AcDbEntity
  8
1
  6
Continuous
 62
     7
100
AcDbHatch
 10
0.0
 20
0.0
 30
0.0
210
0.0
220
0.0
230
1.0
  2
SOLID
 70
     1
 71
     1
 91
        1
 92
        1
 93
        5
 72
     2
 10
187.6763006887426
 20
14.1532693909366
 40
0.3333333333335133
 50
0.0
 51
180.0
 73
     1
 72
     1
 10
187.3429673554095
 20
14.1532693909366
 11
187.3429673554095
 21
10.8467306090632
 72
     2
 10
187.6763006887426
 20
10.8467306090632
 40
0.333333333333087
 50
180.0
 51
360.0
 73
     1
 72
     1
 10
188.0096340220761
 20
10.8467306090632
 11
188.0096340220761
 21
11.0392519172633
 72
     1
 10
188.0096340220761
 20
11.0392519172633
 11
188.0096340220761
 21
14.1532693909366
 97
        5
330
82
330
59
330
81
330
5A
330
5B
 75
     0
 76
     1
 98
        1
 10
0.0
 20
0.0
  0
HATCH
  5
9C
330
47
100
AcDbEntity
  8
1
  6
Continuous
 62
     7
100
AcDbHatch
 10
0.0
 20
0.0
 30
0.0
210
0.0
220
0.0
230
1.0
  2
SOLID
 70
     1
 71
     1
 91
        1
 92
        1
 93
        7
 72
     2
 10
189.0096340220761
 20
14.92250016016732
 40
0.3333333333333997
 50
0.0
 51
180.0
 73
     1
 72
     1
 10
188.6763006887426
 20
14.92250016016732
 11
188.6763006887426
 21
10.2700211480325
 72
     2
 10
189.3429673554095
 20
10.2700211480327
 40
0.666666666666913
 50
180.0000000000173
 51
240.0183606311383
 73
     1
 72
     1
 10
189.009819053083
 20
9.69256409066702
 11
191.1763932042462
 21
8.44261746499592
 72
     2
 10
191.3429673554095
 20
8.731345993678701
 40
0.3333333333333151
 50
240.0183606311269
 51
420.0183606311537
 73
     1
 72
     1
 10
191.5095415065727
 20
9.020074522361597
 11
189.3429673554095
 21
10.2700211480327
 72
     1
 10
189.3429673554095
 20
10.2700211480327
 11
189.3429673554095
 21
14.92250016016732
 97
        7
330
84
330
5F
330
8D
330
5C
330
83
330
5D
330
5E
 75
     0
 76
     1
 98
        1
 10
0.0
 20
0.0
  0
HATCH
  5
9D
330
47
100
AcDbEntity
  8
1
  6
Continuous
 62
     7
100
AcDbHatch
 10
0.0
 20
0.0
 30
0.0
210
0.0
220
0.0
230
1.0
  2
SOLID
 70
     1
 71
     1
 91
        1
 92
        1
 93
       16
 72
     2
 10
193.0780011429341
 20
15.73121731203452
 40
0.2649662124754002
 50
210.0000000000088
 51
360.0
 73
     0
 72
     1
 10
193.3429673554095
 20
15.73121731203452
 11
193.3429673554095
 21
9.308269070601796
 72
     2
 10
193.0096340220761
 20
9.308269070601796
 40
0.3333333333335133
 50
0.0
 51
180.0
 73
     0
 72
     1
 10
192.6763006887426
 20
9.308269070601796
 11
192.6763006887426
 21
12.5
 72
     1
 10
192.6763006887426
 20
12.5
 11
192.6763006887426
 21
14.2320508075689
 72
     1
 10
192.6763006887426
 20
14.2320508075689
 11
191.8206382560401
 21
12.75
 72
     2
 10
191.6763006887426
 20
12.8333333333332
 40
0.1666666666666058
 50
29.99999999994475
 51
150.0000000000406
 73
     0
 72
     1
 10
191.5319631214452
 20
12.75
 11
190.6763006887426
 21
14.2320508075689
 72
     1
 10
190.6763006887426
 20
14.2320508075689
 11
190.6763006887426
 21
12.5
 72
     1
 10
190.6763006887426
 20
12.5
 11
190.6763006887426
 21
10.847585072633
 72
     2
 10
190.3429673554095
 20
10.847585072633
 40
0.3333333333333997
 50
0.0
 51
180.0
 73
     0
 72
     1
 10
190.0096340220761
 20
10.847585072633
 11
190.0096340220761
 21
12.5
 72
     1
 10
190.0096340220761
 20
12.5
 11
190.0096340220761
 21
15.73121731203452
 72
     2
 10
190.2746002345513
 20
15.73121731203452
 40
0.2649662124754628
 50
180.0
 51
330.0000000000127
 73
     0
 72
     1
 10
190.5040677056996
 20
15.8637004182722
 11
191.6763006887426
 21
13.8333333333332
 72
     1
 10
191.6763006887426
 20
13.8333333333332
 11
192.848533671786
 21
15.8637004182722
 97
       16
330
65
330
88
330
66
330
64
330
87
330
63
330
6B
330
6C
330
8E
330
6D
330
6E
330
62
330
86
330
61
330
85
330
60
 75
     0
 76
     1
 98
        1
 10
0.0
 20
0.0
  0
ENDBLK
  5
49
330
47
100
AcDbEntity
  8
0
100
AcDbBlockEnd
  0
BLOCK
  5
4C
330
4A
100
AcDbEntity
  8
0
100
AcDbBlockBegin
  2
A4
 70
     0
 10
1050.0
 20
0.00000000000045
 30
0.0
  3
A4
  1

  0
INSERT
  5
4B
330
4A
100
AcDbEntity
  8
1
100
AcDbBlockReference
  2
_formato_A4
 10
1050.0
 20
0.0
 30
0.0
 41
5.0
 42
5.0
 43
5.0
  0
ENDBLK
  5
4D
330
4A
100
AcDbEntity
  8
0
100
AcDbBlockEnd
  0
BLOCK
  5
1D9
330
1D1
100
AcDbEntity
  8
0
100
AcDbBlockBegin
  2
*D3
 70
     1
 10
0.0
 20
0.0
 30
0.0
  3
*D3
  1

  0
LINE
  5
1D2
330
1D1
100
AcDbEntity
  8
1
  6
Continuous
 62
     2
100
AcDbLine
 10
543.7367611582449
 20
1441.271990660495
 30
0.0
 11
543.7367611582449
 21
876.2719906604951
 31
0.0
  0
LINE
  5
1D3
330
1D1
100
AcDbEntity
  8
1
  6
Continuous
 62
     2
100
AcDbLine
 10
479.2378272921501
 20
876.2719906604951
 30
0.0
 11
548.7367611582449
 21
876.2719906604951
 31
0.0
  0
LINE
  5
1D4
330
1D1
100
AcDbEntity
  8
1
  6
Continuous
 62
     2
100
AcDbLine
 10
479.2378272921501
 20
1441.271990660495
 30
0.0
 11
548.7367611582449
 21
1441.271990660495
 31
0.0
  0
SOLID
  5
1D5
330
1D1
100
AcDbEntity
  8
1
 62
     2
100
AcDbTrace
 10
545.7115486220558
 20
1426.271990660495
 30
0.0
 11
541.761973694434
 21
1426.271990660495
 31
0.0
 12
543.7367611582449
 22
1441.271990660495
 32
0.0
 13
543.7367611582449
 23
1441.271990660495
 33
0.0
  0
SOLID
  5
1D6
330
1D1
100
AcDbEntity
  8
1
 62
     2
100
AcDbTrace
 10
541.761973694434
 20
891.2719906604951
 30
0.0
 11
545.7115486220558
 21
891.2719906604951
 31
0.0
 12
543.7367611582449
 22
876.2719906604951
 32
0.0
 13
543.7367611582449
 23
876.2719906604951
 33
0.0
  0
MTEXT
  5
1D8
330
1D1
100
AcDbEntity
  8
1
 62
     4
100
AcDbMText
 10
533.7367611582449
 20
1140.771990660495
 30
0.0
 40
15.0
 41
0.0
 71
     7
 72
     1
  1
565
  7
CONVERTER_13
 11
0.0
 21
1.0
 31
0.0
 73
     1
 44
0.60024009603842
  0
ENDBLK
  5
1DA
330
1D1
100
AcDbEntity
  8
0
100
AcDbBlockEnd
  0
BLOCK
  5
1E6
330
1DD
100
AcDbEntity
  8
0
100
AcDbBlockBegin
  2
*D4
 70
     1
 10
0.0
 20
0.0
 30
0.0
  3
*D4
  1

  0
LINE
  5
1DE
330
1DD
100
AcDbEntity
  8
1
  6
Continuous
 62
     2
100
AcDbLine
 10
543.7367611582449
 20
733.6467950359508
 30
0.0
 11
543.7367611582449
 21
769.6451317571132
 31
0.0
  0
LINE
  5
1DF
330
1DD
100
AcDbEntity
  8
1
  6
Continuous
 62
     2
100
AcDbLine
 10
543.7367611582449
 20
718.6434684782754
 30
0.0
 11
543.7367611582449
 21
733.6467950359508
 31
0.0
  0
LINE
  5
1E0
330
1DD
100
AcDbEntity
  8
1
  6
Continuous
 62
     2
100
AcDbLine
 10
543.7367611582449
 20
688.6434684782754
 30
0.0
 11
543.7367611582449
 21
718.6434684782754
 31
0.0
  0
LINE
  5
1E1
330
1DD
100
AcDbEntity
  8
1
  6
Continuous
 62
     2
100
AcDbLine
 10
479.2378272921499
 20
733.6467950359508
 30
0.0
 11
548.7367611582449
 21
733.6467950359508
 31
0.0
  0
LINE
  5
1E2
330
1DD
100
AcDbEntity
  8
1
  6
Continuous
 62
     2
100
AcDbLine
 10
475.9867611582563
 20
718.6434684782754
 30
0.0
 11
548.7367611582449
 21
718.6434684782754
 31
0.0
  0
SOLID
  5
1E3
330
1DD
100
AcDbEntity
  8
1
 62
     2
100
AcDbTrace
 10
545.7115486220558
 20
703.6434684782754
 30
0.0
 11
541.761973694434
 21
703.6434684782754
 31
0.0
 12
543.7367611582449
 22
718.6434684782754
 32
0.0
 13
543.7367611582449
 23
718.6434684782754
 33
0.0
  0
SOLID
  5
1E4
330
1DD
100
AcDbEntity
  8
1
 62
     2
100
AcDbTrace
 10
541.761973694434
 20
748.6467950359508
 30
0.0
 11
545.7115486220558
 21
748.6467950359508
 31
0.0
 12
543.7367611582449
 22
733.6467950359508
 32
0.0
 13
543.7367611582449
 23
733.6467950359508
 33
0.0
  0
MTEXT
  5
1E5
330
1DD
100
AcDbEntity
  8
1
 62
     4
100
AcDbMText
 10
533.7367611582449
 20
751.6451317571132
 30
0.0
 40
15.0
 41
0.0
 71
     7
 72
     1
  1
15
  7
CONVERTER_13
 11
0.0
 21
1.0
 31
0.0
 73
     1
 44
0.60024009603842
  0
ENDBLK
  5
1E7
330
1DD
100
AcDbEntity
  8
0
100
AcDbBlockEnd
  0
BLOCK
  5
1F1
330
1EA
100
AcDbEntity
  8
0
100
AcDbBlockBegin
  2
*D5
 70
     1
 10
0.0
 20
0.0
 30
0.0
  3
*D5
  1

  0
LINE
  5
1EB
330
1EA
100
AcDbEntity
  8
1
  6
Continuous
 62
     2
100
AcDbLine
 10
543.7367611582449
 20
183.6434684782757
 30
0.0
 11
543.7367611582449
 21
718.6434684782754
 31
0.0
  0
LINE
  5
1EC
330
1EA
100
AcDbEntity
  8
1
  6
Continuous
 62
     2
100
AcDbLine
 10
475.9867611582563
 20
718.6434684782754
 30
0.0
 11
548.7367611582449
 21
718.6434684782754
 31
0.0
  0
LINE
  5
1ED
330
1EA
100
AcDbEntity
  8
1
  6
Continuous
 62
     2
100
AcDbLine
 10
475.9867611582563
 20
183.6434684782757
 30
0.0
 11
548.7367611582449
 21
183.6434684782757
 31
0.0
  0
SOLID
  5
1EE
330
1EA
100
AcDbEntity
  8
1
 62
     2
100
AcDbTrace
 10
541.761973694434
 20
198.6434684782757
 30
0.0
 11
545.7115486220558
 21
198.6434684782757
 31
0.0
 12
543.7367611582449
 22
183.6434684782757
 32
0.0
 13
543.7367611582449
 23
183.6434684782757
 33
0.0
  0
SOLID
  5
1EF
330
1EA
100
AcDbEntity
  8
1
 62
     2
100
AcDbTrace
 10
545.7115486220558
 20
703.6434684782754
 30
0.0
 11
541.761973694434
 21
703.6434684782754
 31
0.0
 12
543.7367611582449
 22
718.6434684782754
 32
0.0
 13
543.7367611582449
 23
718.6434684782754
 33
0.0
  0
MTEXT
  5
1F0
330
1EA
100
AcDbEntity
  8
1
 62
     4
100
AcDbMText
 10
533.7367611582449
 20
433.1434684782755
 30
0.0
 40
15.0
 41
0.0
 71
     7
 72
     1
  1
535
  7
CONVERTER_13
 11
0.0
 21
1.0
 31
0.0
 73
     1
 44
0.60024009603842
  0
ENDBLK
  5
1F2
330
1EA
100
AcDbEntity
  8
0
100
AcDbBlockEnd
  0
BLOCK
  5
1FE
330
1F5
100
AcDbEntity
  8
0
100
AcDbBlockBegin
  2
*D6
 70
     1
 10
0.0
 20
0.0
 30
0.0
  3
*D6
  1

  0
LINE
  5
1F6
330
1F5
100
AcDbEntity
  8
1
  6
Continuous
 62
     2
100
AcDbLine
 10
483.7367611582455
 20
128.6467950359504
 30
0.0
 11
519.3713110970618
 21
128.6467950359504
 31
0.0
  0
LINE
  5
1F7
330
1F5
100
AcDbEntity
  8
1
  6
Continuous
 62
     2
100
AcDbLine
 10
468.7367611582571
 20
128.6467950359504
 30
0.0
 11
483.7367611582455
 21
128.6467950359504
 31
0.0
  0
LINE
  5
1F8
330
1F5
100
AcDbEntity
  8
1
  6
Continuous
 62
     2
100
AcDbLine
 10
438.7367611582571
 20
128.6467950359504
 30
0.0
 11
468.7367611582571
 21
128.6467950359504
 31
0.0
  0
LINE
  5
1F9
330
1F5
100
AcDbEntity
  8
1
  6
Continuous
 62
     2
100
AcDbLine
 10
483.7367611582455
 20
173.1457289020454
 30
0.0
 11
483.7367611582455
 21
123.6467950359504
 31
0.0
  0
LINE
  5
1FA
330
1F5
100
AcDbEntity
  8
1
  6
Continuous
 62
     2
100
AcDbLine
 10
468.7367611582571
 20
176.3934684782755
 30
0.0
 11
468.7367611582571
 21
123.6467950359504
 31
0.0
  0
SOLID
  5
1FB
330
1F5
100
AcDbEntity
  8
1
 62
     2
100
AcDbTrace
 10
453.7367611582571
 20
126.6720075721394
 30
0.0
 11
453.7367611582571
 21
130.6215824997613
 31
0.0
 12
468.7367611582571
 22
128.6467950359504
 32
0.0
 13
468.7367611582571
 23
128.6467950359504
 33
0.0
  0
SOLID
  5
1FC
330
1F5
100
AcDbEntity
  8
1
 62
     2
100
AcDbTrace
 10
498.7367611582455
 20
130.6215824997613
 30
0.0
 11
498.7367611582455
 21
126.6720075721394
 31
0.0
 12
483.7367611582455
 22
128.6467950359504
 32
0.0
 13
483.7367611582455
 23
128.6467950359504
 33
0.0
  0
MTEXT
  5
1FD
330
1F5
100
AcDbEntity
  8
1
 62
     4
100
AcDbMText
 10
501.3713110970618
 20
138.6467950359504
 30
0.0
 40
15.0
 41
0.0
 71
     7
 72
     1
  1
15
  7
CONVERTER_13
 11
0.9999999999970619
 21
2.424068405545306E-6
 31
0.0
 73
     1
 44
0.60024009603842
  0
ENDBLK
  5
1FF
330
1F5
100
AcDbEntity
  8
0
100
AcDbBlockEnd
  0
BLOCK
  5
209
330
202
100
AcDbEntity
  8
0
100
AcDbBlockBegin
  2
*D7
 70
     1
 10
0.0
 20
0.0
 30
0.0
  3
*D7
  1

  0
LINE
  5
203
330
202
100
AcDbEntity
  8
1
  6
Continuous
 62
     2
100
AcDbLine
 10
353.7367611582575
 20
128.6467950359504
 30
0.0
 11
468.7367611582566
 21
128.6467950359504
 31
0.0
  0
LINE
  5
204
330
202
100
AcDbEntity
  8
1
  6
Continuous
 62
     2
100
AcDbLine
 10
468.7367611582566
 20
176.3934684782755
 30
0.0
 11
468.7367611582566
 21
123.6467950359504
 31
0.0
  0
LINE
  5
205
330
202
100
AcDbEntity
  8
1
  6
Continuous
 62
     2
100
AcDbLine
 10
353.7367611582575
 20
176.3934684782755
 30
0.0
 11
353.7367611582575
 21
123.6467950359504
 31
0.0
  0
SOLID
  5
206
330
202
100
AcDbEntity
  8
1
 62
     2
100
AcDbTrace
 10
368.7367611582575
 20
130.6215824997613
 30
0.0
 11
368.7367611582575
 21
126.6720075721394
 31
0.0
 12
353.7367611582575
 22
128.6467950359504
 32
0.0
 13
353.7367611582575
 23
128.6467950359504
 33
0.0
  0
SOLID
  5
207
330
202
100
AcDbEntity
  8
1
 62
     2
100
AcDbTrace
 10
453.7367611582566
 20
126.6720075721394
 30
0.0
 11
453.7367611582566
 21
130.6215824997613
 31
0.0
 12
468.7367611582566
 22
128.6467950359504
 32
0.0
 13
468.7367611582566
 23
128.6467950359504
 33
0.0
  0
MTEXT
  5
208
330
202
100
AcDbEntity
  8
1
 62
     4
100
AcDbMText
 10
397.736761158257
 20
138.6467950359504
 30
0.0
 40
15.0
 41
0.0
 71
     7
 72
     1
  1
115
  7
CONVERTER_13
 11
0.9999999999970619
 21
2.424068405545306E-6
 31
0.0
 73
     1
 44
0.60024009603842
  0
ENDBLK
  5
20A
330
202
100
AcDbEntity
  8
0
100
AcDbBlockEnd
  0
BLOCK
  5
216
330
20D
100
AcDbEntity
  8
0
100
AcDbBlockBegin
  2
*D8
 70
     1
 10
0.0
 20
0.0
 30
0.0
  3
*D8
  1

  0
LINE
  5
20E
330
20D
100
AcDbEntity
  8
1
  6
Continuous
 62
     2
100
AcDbLine
 10
734.420405887716
 20
836.271990660495
 30
0.0
 11
770.920405887716
 21
836.271990660495
 31
0.0
  0
LINE
  5
20F
330
20D
100
AcDbEntity
  8
1
  6
Continuous
 62
     2
100
AcDbLine
 10
716.420405887716
 20
836.271990660495
 30
0.0
 11
734.420405887716
 21
836.271990660495
 31
0.0
  0
LINE
  5
210
330
20D
100
AcDbEntity
  8
1
  6
Continuous
 62
     2
100
AcDbLine
 10
686.420405887716
 20
836.271990660495
 30
0.0
 11
716.420405887716
 21
836.271990660495
 31
0.0
  0
LINE
  5
211
330
20D
100
AcDbEntity
  8
1
  6
Continuous
 62
     2
100
AcDbLine
 10
734.420405887716
 20
878.0169708816659
 30
0.0
 11
734.420405887716
 21
831.271990660495
 31
0.0
  0
LINE
  5
212
330
20D
100
AcDbEntity
  8
1
  6
Continuous
 62
     2
100
AcDbLine
 10
716.420405887716
 20
873.7719906604952
 30
0.0
 11
716.420405887716
 21
831.271990660495
 31
0.0
  0
SOLID
  5
213
330
20D
100
AcDbEntity
  8
1
 62
     2
100
AcDbTrace
 10
701.420405887716
 20
834.2972031966841
 30
0.0
 11
701.420405887716
 21
838.2467781243059
 31
0.0
 12
716.420405887716
 22
836.271990660495
 32
0.0
 13
716.420405887716
 23
836.271990660495
 33
0.0
  0
SOLID
  5
214
330
20D
100
AcDbEntity
  8
1
 62
     2
100
AcDbTrace
 10
749.420405887716
 20
838.2467781243059
 30
0.0
 11
749.420405887716
 21
834.2972031966841
 31
0.0
 12
734.420405887716
 22
836.271990660495
 32
0.0
 13
734.420405887716
 23
836.271990660495
 33
0.0
  0
MTEXT
  5
215
330
20D
100
AcDbEntity
  8
1
 62
     4
100
AcDbMText
 10
752.920405887716
 20
846.271990660495
 30
0.0
 40
15.0
 41
0.0
 71
     7
 72
     1
  1
18
  7
CONVERTER_13
 11
0.9999999999970619
 21
2.424068405545306E-6
 31
0.0
 73
     1
 44
0.60024009603842
  0
ENDBLK
  5
217
330
20D
100
AcDbEntity
  8
0
100
AcDbBlockEnd
  0
BLOCK
  5
221
330
21A
100
AcDbEntity
  8
0
100
AcDbBlockBegin
  2
*D9
 70
     1
 10
0.0
 20
0.0
 30
0.0
  3
*D9
  1

  0
LINE
  5
21B
330
21A
100
AcDbEntity
  8
1
  6
Continuous
 62
     2
100
AcDbLine
 10
338.7367611582449
 20
836.271990660495
 30
0.0
 11
483.7367611582449
 21
836.271990660495
 31
0.0
  0
LINE
  5
21C
330
21A
100
AcDbEntity
  8
1
  6
Continuous
 62
     2
100
AcDbLine
 10
483.7367611582449
 20
880.7709245265901
 30
0.0
 11
483.7367611582449
 21
831.271990660495
 31
0.0
  0
LINE
  5
21D
330
21A
100
AcDbEntity
  8
1
  6
Continuous
 62
     2
100
AcDbLine
 10
338.7367611582449
 20
880.7709245265901
 30
0.0
 11
338.7367611582449
 21
831.271990660495
 31
0.0
  0
SOLID
  5
21E
330
21A
100
AcDbEntity
  8
1
 62
     2
100
AcDbTrace
 10
353.7367611582449
 20
838.2467781243059
 30
0.0
 11
353.7367611582449
 21
834.2972031966841
 31
0.0
 12
338.7367611582449
 22
836.271990660495
 32
0.0
 13
338.7367611582449
 23
836.271990660495
 33
0.0
  0
SOLID
  5
21F
330
21A
100
AcDbEntity
  8
1
 62
     2
100
AcDbTrace
 10
468.7367611582449
 20
834.2972031966841
 30
0.0
 11
468.7367611582449
 21
838.2467781243059
 31
0.0
 12
483.7367611582449
 22
836.271990660495
 32
0.0
 13
483.7367611582449
 23
836.271990660495
 33
0.0
  0
MTEXT
  5
220
330
21A
100
AcDbEntity
  8
1
 62
     4
100
AcDbMText
 10
395.4867611582449
 20
846.271990660495
 30
0.0
 40
15.0
 41
0.0
 71
     7
 72
     1
  1
145
  7
CONVERTER_13
 11
0.9999999999970619
 21
2.424068405545306E-6
 31
0.0
 73
     1
 44
0.60024009603842
  0
ENDBLK
  5
222
330
21A
100
AcDbEntity
  8
0
100
AcDbBlockEnd
  0
BLOCK
  5
22B
330
225
100
AcDbEntity
  8
0
100
AcDbBlockBegin
  2
*D10
 70
     1
 10
0.0
 20
0.0
 30
0.0
  3
*D10
  1

  0
LINE
  5
226
330
225
100
AcDbEntity
  8
1
  6
Continuous
 62
     2
100
AcDbLine
 10
366.9771210771991
 20
162.4375054202838
 30
0.0
 11
320.077377973055
 21
237.5528516634785
 31
0.0
  0
LINE
  5
227
330
225
100
AcDbEntity
  8
1
  6
Continuous
 62
     2
100
AcDbLine
 10
320.077377973055
 20
237.5528516634785
 30
0.0
 11
269.577377973055
 21
237.5528516634785
 31
0.0
  0
SOLID
  5
228
330
225
100
AcDbEntity
  8
1
 62
     2
100
AcDbTrace
 10
342.7934184148007
 20
197.4417667474984
 30
0.0
 11
346.1436000151974
 21
199.53351849024
 31
0.0
 12
352.4127251663639
 22
185.7640647840745
 32
0.0
 13
352.4127251663639
 23
185.7640647840745
 33
0.0
  0
SOLID
  5
229
330
225
100
AcDbEntity
  8
1
 62
     2
100
AcDbTrace
 10
364.6801039017154
 20
169.8451702090522
 30
0.0
 11
361.3299223013187
 21
167.7534184663106
 31
0.0
 12
355.0607971501522
 22
181.5228721724762
 32
0.0
 13
355.0607971501522
 23
181.5228721724762
 33
0.0
  0
MTEXT
  5
22A
330
225
100
AcDbEntity
  8
1
 62
     4
100
AcDbMText
 10
273.7773779730911
 20
247.5528218474371
 30
0.0
 40
15.0
 41
0.0
 71
     7
 72
     1
  1
\C4;\U+00f8\C4;5
  7
CONVERTER_13
 11
0.9999999999970619
 21
2.424068405545306E-6
 31
0.0
 73
     1
 44
0.60024009603842
  0
ENDBLK
  5
22C
330
225
100
AcDbEntity
  8
0
100
AcDbBlockEnd
  0
ENDSEC
  0
SECTION
  2
ENTITIES
  0
INSERT
  5
4E
330
1F
100
AcDbEntity
  8
0
100
AcDbBlockReference
  2
A4
 10
1050.0
 20
0.00000000000045
 30
0.0
 41
1.0
 42
1.0
 43
1.0
  0
LINE
  5
9E
330
1F
100
AcDbEntity
  8
1
  6
DOT_CENTER
 62
     2
100
AcDbLine
 10
468.736761158257
 20
188.3934684782755
 30
0.0
 11
468.736761158257
 21
178.8934684782755
 31
0.0
  0
LINE
  5
9F
330
1F
100
AcDbEntity
  8
1
  6
DOT_CENTER
 62
     2
100
AcDbLine
 10
473.486761158257
 20
183.6434684782755
 30
0.0
 11
463.986761158257
 21
183.6434684782755
 31
0.0
  0
LINE
  5
A0
330
1F
100
AcDbEntity
  8
1
  6
DOT_CENTER
 62
     2
100
AcDbLine
 10
411.236761158257
 20
188.3934684782755
 30
0.0
 11
411.236761158257
 21
178.8934684782755
 31
0.0
  0
LINE
  5
A1
330
1F
100
AcDbEntity
  8
1
  6
DOT_CENTER
 62
     2
100
AcDbLine
 10
415.986761158257
 20
183.6434684782755
 30
0.0
 11
406.486761158257
 21
183.6434684782755
 31
0.0
  0
LINE
  5
A2
330
1F
100
AcDbEntity
  8
1
  6
DOT_CENTER
 62
     2
100
AcDbLine
 10
353.7367611582579
 20
188.3934684782755
 30
0.0
 11
353.7367611582579
 21
178.8934684782755
 31
0.0
  0
LINE
  5
A3
330
1F
100
AcDbEntity
  8
1
  6
DOT_CENTER
 62
     2
100
AcDbLine
 10
358.4867611582579
 20
183.6434684782755
 30
0.0
 11
348.9867611582579
 21
183.6434684782755
 31
0.0
  0
LINE
  5
A4
330
1F
100
AcDbEntity
  8
1
  6
DOT_CENTER
 62
     2
100
AcDbLine
 10
468.736761158257
 20
723.3934684782754
 30
0.0
 11
468.736761158257
 21
713.8934684782754
 31
0.0
  0
LINE
  5
A5
330
1F
100
AcDbEntity
  8
1
  6
DOT_CENTER
 62
     2
100
AcDbLine
 10
473.486761158257
 20
718.6434684782754
 30
0.0
 11
463.986761158257
 21
718.6434684782754
 31
0.0
  0
LINE
  5
A6
330
1F
100
AcDbEntity
  8
1
  6
DOT_CENTER
 62
     2
100
AcDbLine
 10
411.236761158257
 20
723.3934684782754
 30
0.0
 11
411.236761158257
 21
713.8934684782754
 31
0.0
  0
LINE
  5
A7
330
1F
100
AcDbEntity
  8
1
  6
DOT_CENTER
 62
     2
100
AcDbLine
 10
415.986761158257
 20
718.6434684782754
 30
0.0
 11
406.486761158257
 21
718.6434684782754
 31
0.0
  0
LINE
  5
A8
330
1F
100
AcDbEntity
  8
1
  6
DOT_CENTER
 62
     2
100
AcDbLine
 10
353.7367611582579
 20
723.3934684782754
 30
0.0
 11
353.7367611582579
 21
713.8934684782754
 31
0.0
  0
LINE
  5
A9
330
1F
100
AcDbEntity
  8
1
  6
DOT_CENTER
 62
     2
100
AcDbLine
 10
358.4867611582579
 20
718.6434684782754
 30
0.0
 11
348.9867611582579
 21
718.6434684782754
 31
0.0
  0
LINE
  5
AA
330
1F
100
AcDbEntity
  8
0
  6
Continuous
 62
     7
100
AcDbLine
 10
343.736761158269
 20
1062.255183955215
 30
0.0
 11
343.736761158269
 21
1080.342243234373
 31
0.0
  0
LINE
  5
AB
102
{ACAD_REACTORS
330
22F
102
}
330
1F
100
AcDbEntity
  8
1
  6
Continuous
 62
     2
100
AcDbLine
 10
384.060194517486
 20
1424.264288982694
 30
0.0
 11
384.060194517486
 21
1427.898039222945
 31
0.0
  0
LINE
  5
AC
102
{ACAD_REACTORS
330
22F
102
}
330
1F
100
AcDbEntity
  8
1
  6
Continuous
 62
     2
100
AcDbLine
 10
385.435125130859
 20
1424.624665663105
 30
0.0
 11
384.435125130859
 21
1424.047742586182
 31
0.0
  0
LINE
  5
AD
102
{ACAD_REACTORS
330
22F
102
}
330
1F
100
AcDbEntity
  8
1
  6
Continuous
 62
     2
100
AcDbLine
 10
384.560194517486
 20
1424.697141502305
 30
0.0
 11
385.185263904114
 21
1425.057758456129
 31
0.0
  0
LINE
  5
AE
102
{ACAD_REACTORS
330
22F
102
}
330
1F
100
AcDbEntity
  8
1
  6
Continuous
 62
     2
100
AcDbLine
 10
384.560194517486
 20
1425.83116410282
 30
0.0
 11
384.560194517486
 21
1424.697141502305
 31
0.0
  0
LINE
  5
AF
102
{ACAD_REACTORS
330
22F
102
}
330
1F
100
AcDbEntity
  8
1
  6
Continuous
 62
     2
100
AcDbLine
 10
385.310194517486
 20
1425.83116410282
 30
0.0
 11
384.560194517486
 21
1425.83116410282
 31
0.0
  0
LINE
  5
B0
102
{ACAD_REACTORS
330
22F
102
}
330
1F
100
AcDbEntity
  8
1
  6
Continuous
 62
     2
100
AcDbLine
 10
384.560194517486
 20
1426.33116410282
 30
0.0
 11
385.310194517486
 21
1426.33116410282
 31
0.0
  0
LINE
  5
B1
102
{ACAD_REACTORS
330
22F
102
}
330
1F
100
AcDbEntity
  8
1
  6
Continuous
 62
     2
100
AcDbLine
 10
384.560194517486
 20
1427.465186703333
 30
0.0
 11
384.560194517486
 21
1426.33116410282
 31
0.0
  0
LINE
  5
B2
102
{ACAD_REACTORS
330
22F
102
}
330
1F
100
AcDbEntity
  8
1
  6
Continuous
 62
     2
100
AcDbLine
 10
385.185263904114
 20
1427.10456974951
 30
0.0
 11
384.560194517486
 21
1427.465186703333
 31
0.0
  0
LINE
  5
B3
102
{ACAD_REACTORS
330
22F
102
}
330
1F
100
AcDbEntity
  8
1
  6
Continuous
 62
     2
100
AcDbLine
 10
384.435125130859
 20
1428.114585619457
 30
0.0
 11
385.435125130859
 21
1427.537662542534
 31
0.0
  0
LINE
  5
B4
102
{ACAD_REACTORS
330
22E
102
}
330
1F
100
AcDbEntity
  8
1
  6
Continuous
 62
     2
100
AcDbLine
 10
379.060194517486
 20
1424.841212059617
 30
0.0
 11
379.060194517486
 21
1427.321116146022
 31
0.0
  0
LINE
  5
B5
102
{ACAD_REACTORS
330
22E
102
}
330
1F
100
AcDbEntity
  8
1
  6
Continuous
 62
     2
100
AcDbLine
 10
379.560194517486
 20
1424.985603040767
 30
0.0
 11
379.560194517486
 21
1424.841212059617
 31
0.0
  0
LINE
  5
B6
102
{ACAD_REACTORS
330
22E
102
}
330
1F
100
AcDbEntity
  8
1
  6
Continuous
 62
     2
100
AcDbLine
 10
379.560194517486
 20
1427.321116146022
 30
0.0
 11
379.560194517486
 21
1424.985603040767
 31
0.0
  0
LINE
  5
B7
102
{ACAD_REACTORS
330
230
102
}
330
1F
100
AcDbEntity
  8
1
  6
Continuous
 62
     2
100
AcDbLine
 10
381.935263904114
 20
1423.038127201566
 30
0.0
 11
380.3103332907419
 21
1423.97558717082
 31
0.0
  0
LINE
  5
B8
102
{ACAD_REACTORS
330
230
102
}
330
1F
100
AcDbEntity
  8
1
  6
Continuous
 62
     2
100
AcDbLine
 10
380.560194517486
 20
1424.408679963844
 30
0.0
 11
382.185125130859
 21
1423.471219994591
 31
0.0
  0
LINE
  5
B9
102
{ACAD_REACTORS
330
230
102
}
330
1F
100
AcDbEntity
  8
1
  6
Continuous
 62
     2
100
AcDbLine
 10
380.560194517486
 20
1427.898039222945
 30
0.0
 11
380.560194517486
 21
1424.408679963844
 31
0.0
  0
LINE
  5
BA
102
{ACAD_REACTORS
330
230
102
}
330
1F
100
AcDbEntity
  8
1
  6
Continuous
 62
     2
100
AcDbLine
 10
380.060194517486
 20
1424.408679963844
 30
0.0
 11
380.060194517486
 21
1427.898039222945
 31
0.0
  0
LINE
  5
BB
102
{ACAD_REACTORS
330
231
102
}
330
1F
100
AcDbEntity
  8
1
  6
Continuous
 62
     2
100
AcDbLine
 10
383.189369254769
 20
1428.580866195784
 30
0.0
 11
382.310194517486
 21
1427.08116410282
 31
0.0
  0
LINE
  5
BC
102
{ACAD_REACTORS
330
231
102
}
330
1F
100
AcDbEntity
  8
1
  6
Continuous
 62
     2
100
AcDbLine
 10
383.560194517486
 20
1423.687365905771
 30
0.0
 11
383.560194517486
 21
1428.481503866106
 31
0.0
  0
LINE
  5
BD
102
{ACAD_REACTORS
330
231
102
}
330
1F
100
AcDbEntity
  8
1
  6
Continuous
 62
     2
100
AcDbLine
 10
383.060194517486
 20
1426.08116410282
 30
0.0
 11
383.060194517486
 21
1423.687365905771
 31
0.0
  0
LINE
  5
BE
102
{ACAD_REACTORS
330
231
102
}
330
1F
100
AcDbEntity
  8
1
  6
Continuous
 62
     2
100
AcDbLine
 10
381.560194517486
 20
1424.841852907294
 30
0.0
 11
381.560194517486
 21
1426.08116410282
 31
0.0
  0
LINE
  5
BF
102
{ACAD_REACTORS
330
231
102
}
330
1F
100
AcDbEntity
  8
1
  6
Continuous
 62
     2
100
AcDbLine
 10
381.060194517486
 20
1426.08116410282
 30
0.0
 11
381.060194517486
 21
1424.841852907294
 31
0.0
  0
LINE
  5
C0
102
{ACAD_REACTORS
330
231
102
}
330
1F
100
AcDbEntity
  8
1
  6
Continuous
 62
     2
100
AcDbLine
 10
381.431019780204
 20
1428.580866195784
 30
0.0
 11
382.310194517486
 21
1427.08116410282
 31
0.0
  0
LINE
  5
C1
102
{ACAD_REACTORS
330
231
102
}
330
1F
100
AcDbEntity
  8
1
  6
Continuous
 62
     2
100
AcDbLine
 10
381.060194517486
 20
1426.08116410282
 30
0.0
 11
381.060194517486
 21
1428.481503866106
 31
0.0
  0
LINE
  5
C2
330
1F
100
AcDbEntity
  8
1
  6
Continuous
 62
     2
100
AcDbLine
 10
382.310194517486
 20
1422.33116410282
 30
0.0
 11
375.99786806113
 21
1425.972890904563
 31
0.0
  0
LINE
  5
C3
330
1F
100
AcDbEntity
  8
1
  6
Continuous
 62
     2
100
AcDbLine
 10
388.6225209738429
 20
1425.972890904563
 30
0.0
 11
382.310194517486
 21
1422.33116410282
 31
0.0
  0
LINE
  5
C4
330
1F
100
AcDbEntity
  8
1
  6
Continuous
 62
     2
100
AcDbLine
 10
382.310194517486
 20
1429.80809088208
 30
0.0
 11
388.6225209738429
 21
1426.189437301075
 31
0.0
  0
LINE
  5
C5
330
1F
100
AcDbEntity
  8
1
  6
Continuous
 62
     2
100
AcDbLine
 10
375.99786806113
 20
1426.189437301075
 30
0.0
 11
382.310194517486
 21
1429.80809088208
 31
0.0
  0
LINE
  5
C6
102
{ACAD_REACTORS
330
231
102
}
330
1F
100
AcDbEntity
  8
1
  6
Continuous
 62
     2
100
AcDbLine
 10
381.560194517486
 20
1427.380202208496
 30
0.0
 11
381.560194517486
 21
1426.08116410282
 31
0.0
  0
LINE
  5
C7
102
{ACAD_REACTORS
330
231
102
}
330
1F
100
AcDbEntity
  8
1
  6
Continuous
 62
     2
100
AcDbLine
 10
382.201941342013
 20
1426.26866410282
 30
0.0
 11
381.560194517486
 21
1427.380202208496
 31
0.0
  0
LINE
  5
C8
102
{ACAD_REACTORS
330
231
102
}
330
1F
100
AcDbEntity
  8
1
  6
Continuous
 62
     2
100
AcDbLine
 10
383.060194517486
 20
1427.380202208496
 30
0.0
 11
382.418447692959
 21
1426.26866410282
 31
0.0
  0
LINE
  5
C9
102
{ACAD_REACTORS
330
231
102
}
330
1F
100
AcDbEntity
  8
1
  6
Continuous
 62
     2
100
AcDbLine
 10
383.060194517486
 20
1426.08116410282
 30
0.0
 11
383.060194517486
 21
1427.380202208496
 31
0.0
  0
LINE
  5
CA
330
1F
100
AcDbEntity
  8
0
  6
Continuous
 62
     7
100
AcDbLine
 10
476.737827292151
 20
1441.271990660495
 30
0.0
 11
345.73569502434
 21
1441.271990660495
 31
0.0
  0
LINE
  5
CB
330
1F
100
AcDbEntity
  8
0
  6
Continuous
 62
     7
100
AcDbLine
 10
470.2367611582579
 20
1429.058304622245
 30
0.0
 11
467.2367611582579
 21
1429.058304622245
 31
0.0
  0
LINE
  5
CC
330
1F
100
AcDbEntity
  8
0
  6
Continuous
 62
     7
100
AcDbLine
 10
467.2367611582579
 20
1423.479023583394
 30
0.0
 11
470.2367611582579
 21
1423.479023583394
 31
0.0
  0
LINE
  5
CD
330
1F
100
AcDbEntity
  8
0
  6
Continuous
 62
     7
100
AcDbLine
 10
342.8832077676759
 20
1351.897137015
 30
0.0
 11
339.2488931926009
 21
1355.531451590075
 31
0.0
  0
LINE
  5
CE
330
1F
100
AcDbEntity
  8
0
  6
Continuous
 62
     7
100
AcDbLine
 10
343.3938257393099
 20
1351.271990660495
 30
0.0
 11
343.0867611582448
 21
1351.271990660495
 31
0.0
  0
LINE
  5
CF
330
1F
100
AcDbEntity
  8
0
  6
Continuous
 62
     7
100
AcDbLine
 10
343.0867611582448
 20
1351.271990660495
 30
0.0
 11
338.7367611582449
 21
1351.271990660495
 31
0.0
  0
LINE
  5
D0
330
1F
100
AcDbEntity
  8
0
  6
Continuous
 62
     7
100
AcDbLine
 10
483.7367611582449
 20
1371.271990660395
 30
0.0
 11
481.9485240948638
 21
1371.271990660495
 31
0.0
  0
LINE
  5
D1
330
1F
100
AcDbEntity
  8
0
  6
Continuous
 62
     7
100
AcDbLine
 10
481.9485240948638
 20
1371.271990660495
 30
0.0
 11
479.386761158245
 21
1371.271990660495
 31
0.0
  0
LINE
  5
D2
330
1F
100
AcDbEntity
  8
0
  6
Continuous
 62
     7
100
AcDbLine
 10
479.386761158245
 20
1371.271990660495
 30
0.0
 11
479.0796965772049
 21
1371.271990660495
 31
0.0
  0
LINE
  5
D3
330
1F
100
AcDbEntity
  8
0
  6
Continuous
 62
     7
100
AcDbLine
 10
483.7367611582449
 20
1371.271990660395
 30
0.0
 11
483.7459456400409
 21
1371.271990660495
 31
0.0
  0
LINE
  5
D4
330
1F
100
AcDbEntity
  8
0
  6
Continuous
 62
     7
100
AcDbLine
 10
478.7367611582449
 20
1370.284528681571
 30
0.0
 11
478.7367611582449
 21
1352.254341148157
 31
0.0
  0
LINE
  5
D5
330
1F
100
AcDbEntity
  8
0
  6
Continuous
 62
     7
100
AcDbLine
 10
483.2246291238889
 20
1355.535102332614
 30
0.0
 11
479.5903145488389
 21
1351.900787757563
 31
0.0
  0
LINE
  5
D6
330
1F
100
AcDbEntity
  8
0
  6
Continuous
 62
     7
100
AcDbLine
 10
479.2367801974378
 20
1351.271990660495
 30
0.0
 11
479.386761158245
 21
1351.271990660495
 31
0.0
  0
LINE
  5
D7
330
1F
100
AcDbEntity
  8
0
  6
Continuous
 62
     7
100
AcDbLine
 10
479.0796965772049
 20
1351.271990660495
 30
0.0
 11
479.2367801974378
 21
1351.271990660495
 31
0.0
  0
LINE
  5
D8
330
1F
100
AcDbEntity
  8
0
  6
Continuous
 62
     7
100
AcDbLine
 10
483.7367611582449
 20
1351.271990660495
 30
0.0
 11
479.386761158245
 21
1351.271990660495
 31
0.0
  0
LINE
  5
D9
330
1F
100
AcDbEntity
  8
0
  6
Continuous
 62
     7
100
AcDbLine
 10
478.579677538012
 20
1351.771990660495
 30
0.0
 11
478.579677538012
 21
1370.771990660495
 31
0.0
  0
LINE
  5
DA
330
1F
100
AcDbEntity
  8
0
  6
Continuous
 62
     7
100
AcDbLine
 10
343.8938447785029
 20
1370.771990660495
 30
0.0
 11
343.8938447785029
 21
1351.771990660495
 31
0.0
  0
LINE
  5
DB
330
1F
100
AcDbEntity
  8
0
  6
Continuous
 62
     7
100
AcDbLine
 10
479.5903145488389
 20
1370.638082072164
 30
0.0
 11
483.2246291238889
 21
1367.003767497113
 31
0.0
  0
LINE
  5
DC
330
1F
100
AcDbEntity
  8
0
  6
Continuous
 62
     7
100
AcDbLine
 10
343.736761158269
 20
1352.250690405593
 30
0.0
 11
343.736761158269
 21
1370.287063188747
 31
0.0
  0
LINE
  5
DD
330
1F
100
AcDbEntity
  8
0
  6
Continuous
 62
     7
100
AcDbLine
 10
343.0867611582448
 20
1371.271990660495
 30
0.0
 11
343.3938257393099
 21
1371.271990660495
 31
0.0
  0
LINE
  5
DE
330
1F
100
AcDbEntity
  8
0
  6
Continuous
 62
     7
100
AcDbLine
 10
409.7367611582579
 20
1429.058304622245
 30
0.0
 11
412.7367611582579
 21
1429.058304622245
 31
0.0
  0
LINE
  5
DF
330
1F
100
AcDbEntity
  8
0
  6
Continuous
 62
     7
100
AcDbLine
 10
355.2367611582579
 20
1429.058304622245
 30
0.0
 11
352.2367611582579
 21
1429.058304622245
 31
0.0
  0
LINE
  5
E0
330
1F
100
AcDbEntity
  8
0
  6
Continuous
 62
     7
100
AcDbLine
 10
409.7367611582579
 20
1423.479023583394
 30
0.0
 11
412.7367611582579
 21
1423.479023583394
 31
0.0
  0
LINE
  5
E1
330
1F
100
AcDbEntity
  8
0
  6
Continuous
 62
     7
100
AcDbLine
 10
339.2488931926009
 20
1367.006302004266
 30
0.0
 11
342.8832077676759
 21
1370.640616579341
 31
0.0
  0
LINE
  5
E2
330
1F
100
AcDbEntity
  8
0
  6
Continuous
 62
     7
100
AcDbLine
 10
352.2367611582579
 20
1423.479023583394
 30
0.0
 11
355.2367611582579
 21
1423.479023583394
 31
0.0
  0
LINE
  5
E3
330
1F
100
AcDbEntity
  8
0
  6
Continuous
 62
     7
100
AcDbLine
 10
338.7367611582449
 20
1371.271990660495
 30
0.0
 11
343.0867611582448
 21
1371.271990660495
 31
0.0
  0
LINE
  5
E4
330
1F
100
AcDbEntity
  8
0
  6
Continuous
 62
     7
100
AcDbLine
 10
483.7367611582449
 20
1077.646254729207
 30
0.0
 11
483.7367611582449
 21
1355.322970298258
 31
0.0
  0
LINE
  5
E5
330
1F
100
AcDbEntity
  8
0
  6
Continuous
 62
     7
100
AcDbLine
 10
483.7367611582449
 20
1064.897726591783
 30
0.0
 11
483.7367611582449
 21
962.2219012586754
 31
0.0
  0
LINE
  5
E6
330
1F
100
AcDbEntity
  8
0
  6
Continuous
 62
     7
100
AcDbLine
 10
338.7367611582449
 20
1367.218434038622
 30
0.0
 11
338.7367611582449
 21
1434.2730567944
 31
0.0
  0
LINE
  5
E7
330
1F
100
AcDbEntity
  8
0
  6
Continuous
 62
     7
100
AcDbLine
 10
483.2246291238889
 20
950.5341822099078
 30
0.0
 11
479.5903145488389
 21
946.8998676348572
 31
0.0
  0
LINE
  5
E8
330
1F
100
AcDbEntity
  8
0
  6
Continuous
 62
     7
100
AcDbLine
 10
479.5903145488389
 20
965.6440837993703
 30
0.0
 11
483.2246291238889
 21
962.0097692243196
 31
0.0
  0
LINE
  5
E9
330
1F
100
AcDbEntity
  8
0
  6
Continuous
 62
     7
100
AcDbLine
 10
483.2246291238889
 20
1065.109858626139
 30
0.0
 11
479.386761158245
 21
1061.271990660495
 31
0.0
  0
LINE
  5
EA
330
1F
100
AcDbEntity
  8
0
  6
Continuous
 62
     7
100
AcDbLine
 10
479.386761158245
 20
1081.271990660495
 30
0.0
 11
483.2246291238889
 21
1077.434122694851
 31
0.0
  0
LINE
  5
EB
330
1F
100
AcDbEntity
  8
0
  6
Continuous
 62
     7
100
AcDbLine
 10
479.2367801974378
 20
1081.271990660495
 30
0.0
 11
479.386761158245
 21
1081.271990660495
 31
0.0
  0
LINE
  5
EC
330
1F
100
AcDbEntity
  8
0
  6
Continuous
 62
     7
100
AcDbLine
 10
479.0796965772049
 20
1081.271990660495
 30
0.0
 11
479.2367801974378
 21
1081.271990660495
 31
0.0
  0
LINE
  5
ED
330
1F
100
AcDbEntity
  8
0
  6
Continuous
 62
     7
100
AcDbLine
 10
483.7367611582449
 20
1061.271990660495
 30
0.0
 11
479.386761158245
 21
1061.271990660495
 31
0.0
  0
LINE
  5
EE
330
1F
100
AcDbEntity
  8
0
  6
Continuous
 62
     7
100
AcDbLine
 10
479.386761158245
 20
1061.271990660495
 30
0.0
 11
479.2367801974378
 21
1061.271990660495
 31
0.0
  0
LINE
  5
EF
330
1F
100
AcDbEntity
  8
0
  6
Continuous
 62
     7
100
AcDbLine
 10
479.2367801974378
 20
1061.271990660495
 30
0.0
 11
479.0796965772049
 21
1061.271990660495
 31
0.0
  0
LINE
  5
F0
330
1F
100
AcDbEntity
  8
0
  6
Continuous
 62
     7
100
AcDbLine
 10
483.7459456400409
 20
966.271990660495
 30
0.0
 11
479.386761158245
 21
966.271990660495
 31
0.0
  0
LINE
  5
F1
330
1F
100
AcDbEntity
  8
0
  6
Continuous
 62
     7
100
AcDbLine
 10
479.0796965772049
 20
966.271990660495
 30
0.0
 11
479.386761158245
 21
966.271990660495
 31
0.0
  0
LINE
  5
F2
330
1F
100
AcDbEntity
  8
0
  6
Continuous
 62
     7
100
AcDbLine
 10
342.8832077676759
 20
1061.901630564621
 30
0.0
 11
339.2488931926009
 21
1065.535945139697
 31
0.0
  0
LINE
  5
F3
330
1F
100
AcDbEntity
  8
0
  6
Continuous
 62
     7
100
AcDbLine
 10
338.7367611582449
 20
962.2215661184487
 30
0.0
 11
338.7367611582449
 21
968.271990660495
 31
0.0
  0
LINE
  5
F4
330
1F
100
AcDbEntity
  8
0
  6
Continuous
 62
     7
100
AcDbLine
 10
339.2488931926009
 20
962.0094340840926
 30
0.0
 11
342.8832077676759
 21
965.6437486591677
 31
0.0
  0
LINE
  5
F5
330
1F
100
AcDbEntity
  8
0
  6
Continuous
 62
     7
100
AcDbLine
 10
338.7367611582449
 20
968.271990660495
 30
0.0
 11
338.7367611582449
 21
1065.32381310534
 31
0.0
  0
LINE
  5
F6
330
1F
100
AcDbEntity
  8
0
  6
Continuous
 62
     7
100
AcDbLine
 10
478.579677538012
 20
1061.771990660495
 30
0.0
 11
478.579677538012
 21
1080.771990660495
 31
0.0
  0
LINE
  5
F7
330
1F
100
AcDbEntity
  8
0
  6
Continuous
 62
     7
100
AcDbLine
 10
478.7367611582449
 20
947.2534210254505
 30
0.0
 11
478.7367611582449
 21
965.2905304087772
 31
0.0
  0
LINE
  5
F8
330
1F
100
AcDbEntity
  8
0
  6
Continuous
 62
     7
100
AcDbLine
 10
338.7367611582449
 20
944.271990660495
 30
0.0
 11
338.7367611582449
 21
950.3221996000734
 31
0.0
  0
LINE
  5
F9
330
1F
100
AcDbEntity
  8
0
  6
Continuous
 62
     7
100
AcDbLine
 10
342.8832077676759
 20
946.9000170593542
 30
0.0
 11
339.2488931926009
 21
950.5343316344291
 31
0.0
  0
LINE
  5
FA
330
1F
100
AcDbEntity
  8
0
  6
Continuous
 62
     7
100
AcDbLine
 10
338.7367611582449
 20
943.753015915388
 30
0.0
 11
338.7367611582449
 21
944.271990660495
 31
0.0
  0
LINE
  5
FB
330
1F
100
AcDbEntity
  8
0
  6
Continuous
 62
     7
100
AcDbLine
 10
338.7367611582449
 20
943.853015915388
 30
0.0
 11
338.7367611582449
 21
883.27092452659
 31
0.0
  0
LINE
  5
FC
330
1F
100
AcDbEntity
  8
0
  6
Continuous
 62
     7
100
AcDbLine
 10
338.7367611582449
 20
946.271990660495
 30
0.0
 11
343.0867611582448
 21
946.271990660495
 31
0.0
  0
LINE
  5
FD
330
1F
100
AcDbEntity
  8
0
  6
Continuous
 62
     7
100
AcDbLine
 10
343.0867611582448
 20
946.271990660495
 30
0.0
 11
343.3938257393099
 21
946.271990660495
 31
0.0
  0
LINE
  5
FE
330
1F
100
AcDbEntity
  8
0
  6
Continuous
 62
     7
100
AcDbLine
 10
478.579677538012
 20
946.771990660495
 30
0.0
 11
478.579677538012
 21
965.771990660495
 31
0.0
  0
LINE
  5
FF
330
1F
100
AcDbEntity
  8
0
  6
Continuous
 62
     7
100
AcDbLine
 10
478.7367611582449
 20
1061.771990660495
 30
0.0
 11
478.7367611582449
 21
1080.771990660495
 31
0.0
  0
LINE
  5
100
330
1F
100
AcDbEntity
  8
0
  6
Continuous
 62
     7
100
AcDbLine
 10
339.2488931926009
 20
1077.061482049891
 30
0.0
 11
342.8832077676759
 21
1080.695796624966
 31
0.0
  0
LINE
  5
101
330
1F
100
AcDbEntity
  8
0
  6
Continuous
 62
     7
100
AcDbLine
 10
338.7367611582449
 20
1077.273614084247
 30
0.0
 11
338.7367611582449
 21
1355.319319555718
 31
0.0
  0
LINE
  5
102
330
1F
100
AcDbEntity
  8
0
  6
Continuous
 62
     7
100
AcDbLine
 10
338.7367611582449
 20
966.271990660495
 30
0.0
 11
343.0867611582448
 21
966.271990660495
 31
0.0
  0
LINE
  5
103
330
1F
100
AcDbEntity
  8
0
  6
Continuous
 62
     7
100
AcDbLine
 10
343.0867611582448
 20
966.271990660495
 30
0.0
 11
343.3938257393099
 21
966.271990660495
 31
0.0
  0
LINE
  5
104
330
1F
100
AcDbEntity
  8
0
  6
Continuous
 62
     7
100
AcDbLine
 10
343.736761158269
 20
947.2535704499478
 30
0.0
 11
343.736761158269
 21
965.2901952685745
 31
0.0
  0
LINE
  5
105
330
1F
100
AcDbEntity
  8
0
  6
Continuous
 62
     7
100
AcDbLine
 10
343.8938447785029
 20
965.771990660495
 30
0.0
 11
343.8938447785029
 21
946.771990660495
 31
0.0
  0
LINE
  5
106
330
1F
100
AcDbEntity
  8
0
  6
Continuous
 62
     7
100
AcDbLine
 10
343.8938447785029
 20
1080.771990660495
 30
0.0
 11
343.8938447785029
 21
1061.771990660495
 31
0.0
  0
LINE
  5
107
330
1F
100
AcDbEntity
  8
0
  6
Continuous
 62
     7
100
AcDbLine
 10
338.7367611582449
 20
1081.271990660495
 30
0.0
 11
343.0867611582448
 21
1081.271990660495
 31
0.0
  0
LINE
  5
108
330
1F
100
AcDbEntity
  8
0
  6
Continuous
 62
     7
100
AcDbLine
 10
338.7367611582449
 20
1061.271990660495
 30
0.0
 11
343.0867611582448
 21
1061.271990660495
 31
0.0
  0
LINE
  5
109
330
1F
100
AcDbEntity
  8
0
  6
Continuous
 62
     7
100
AcDbLine
 10
343.0867611582448
 20
1061.271990660495
 30
0.0
 11
343.3938257393099
 21
1061.271990660495
 31
0.0
  0
LINE
  5
10A
330
1F
100
AcDbEntity
  8
0
  6
Continuous
 62
     7
100
AcDbLine
 10
343.0867611582448
 20
1081.271990660495
 30
0.0
 11
343.3938257393099
 21
1081.271990660495
 31
0.0
  0
LINE
  5
10B
330
1F
100
AcDbEntity
  8
0
  6
Continuous
 62
     7
100
AcDbLine
 10
483.7367611582449
 20
1367.215899531469
 30
0.0
 11
483.7367611582449
 21
1434.2730567944
 31
0.0
  0
LINE
  5
10C
330
1F
100
AcDbEntity
  8
0
  6
Continuous
 62
     7
100
AcDbLine
 10
465.9471206388319
 20
892.7686641028193
 30
0.0
 11
465.9471206388319
 21
889.7686641028193
 31
0.0
  0
LINE
  5
10D
330
1F
100
AcDbEntity
  8
0
  6
Continuous
 62
     7
100
AcDbLine
 10
408.4471206388319
 20
892.7686641028193
 30
0.0
 11
408.4471206388319
 21
889.7686641028193
 31
0.0
  0
LINE
  5
10E
330
1F
100
AcDbEntity
  8
0
  6
Continuous
 62
     7
100
AcDbLine
 10
414.026401677683
 20
889.7686641028193
 30
0.0
 11
414.026401677683
 21
892.7686641028193
 31
0.0
  0
LINE
  5
10F
330
1F
100
AcDbEntity
  8
0
  6
Continuous
 62
     7
100
AcDbLine
 10
356.526401677683
 20
889.7686641028196
 30
0.0
 11
356.526401677683
 21
892.7686641028196
 31
0.0
  0
LINE
  5
110
330
1F
100
AcDbEntity
  8
0
  6
Continuous
 62
     7
100
AcDbLine
 10
350.9471206388319
 20
892.7686641028196
 30
0.0
 11
350.9471206388319
 21
889.7686641028196
 31
0.0
  0
LINE
  5
111
330
1F
100
AcDbEntity
  8
0
  6
Continuous
 62
     7
100
AcDbLine
 10
483.7367611582449
 20
946.271990660495
 30
0.0
 11
479.386761158245
 21
946.271990660495
 31
0.0
  0
LINE
  5
112
330
1F
100
AcDbEntity
  8
0
  6
Continuous
 62
     7
100
AcDbLine
 10
479.386761158245
 20
946.271990660495
 30
0.0
 11
479.0796965772049
 21
946.271990660495
 31
0.0
  0
LINE
  5
113
330
1F
100
AcDbEntity
  8
0
  6
Continuous
 62
     7
100
AcDbLine
 10
483.7367611582449
 20
883.27092452659
 30
0.0
 11
483.7367611582449
 21
950.322050175552
 31
0.0
  0
LINE
  5
114
330
1F
100
AcDbEntity
  8
0
  6
Continuous
 62
     7
100
AcDbLine
 10
471.526401677683
 20
889.7686641028193
 30
0.0
 11
471.526401677683
 21
892.7686641028193
 31
0.0
  0
LINE
  5
115
330
1F
100
AcDbEntity
  8
0
  6
Continuous
 62
     7
100
AcDbLine
 10
345.73569502434
 20
876.271990660495
 30
0.0
 11
476.737827292151
 21
876.271990660495
 31
0.0
  0
LINE
  5
116
330
1F
100
AcDbEntity
  8
0
  6
Continuous
 62
     7
100
AcDbLine
 10
736.420405887716
 20
1258.19914812335
 30
0.0
 11
736.420405887716
 21
1266.716450860234
 31
0.0
  0
LINE
  5
117
330
1F
100
AcDbEntity
  8
0
  6
Continuous
 62
     7
100
AcDbLine
 10
734.420405887716
 20
1080.771990660495
 30
0.0
 11
734.420405887716
 21
1061.771990660495
 31
0.0
  0
LINE
  5
118
330
1F
100
AcDbEntity
  8
0
  6
Continuous
 62
     7
100
AcDbLine
 10
734.420405887716
 20
1080.771990660495
 30
0.0
 11
732.420405887716
 21
1080.771990660495
 31
0.0
  0
LINE
  5
119
330
1F
100
AcDbEntity
  8
0
  6
Continuous
 62
     7
100
AcDbLine
 10
734.420405887716
 20
965.771990660495
 30
0.0
 11
734.420405887716
 21
946.771990660495
 31
0.0
  0
LINE
  5
11A
330
1F
100
AcDbEntity
  8
0
  6
Continuous
 62
     7
100
AcDbLine
 10
734.420405887716
 20
965.771990660495
 30
0.0
 11
732.420405887716
 21
965.771990660495
 31
0.0
  0
LINE
  5
11B
330
1F
100
AcDbEntity
  8
0
  6
Continuous
 62
     7
100
AcDbLine
 10
734.420405887716
 20
965.771990660495
 30
0.0
 11
734.420405887716
 21
1061.771990660495
 31
0.0
  0
LINE
  5
11C
330
1F
100
AcDbEntity
  8
0
  6
Continuous
 62
     7
100
AcDbLine
 10
734.420405887716
 20
1257.672889361936
 30
0.0
 11
734.420405887716
 21
1267.242709621649
 31
0.0
  0
LINE
  5
11D
330
1F
100
AcDbEntity
  8
0
  6
Continuous
 62
     7
100
AcDbLine
 10
734.420405887716
 20
1080.771990660495
 30
0.0
 11
734.420405887716
 21
1257.672889361936
 31
0.0
  0
LINE
  5
11E
330
1F
100
AcDbEntity
  8
0
  6
Continuous
 62
     7
100
AcDbLine
 10
732.420405887716
 20
968.271990660495
 30
0.0
 11
732.420405887716
 21
961.9219906604951
 31
0.0
  0
LINE
  5
11F
330
1F
100
AcDbEntity
  8
0
  6
Continuous
 62
     7
100
AcDbLine
 10
732.420405887716
 20
1083.271990660495
 30
0.0
 11
732.420405887716
 21
1076.921990660495
 31
0.0
  0
LINE
  5
120
330
1F
100
AcDbEntity
  8
0
  6
Continuous
 62
     7
100
AcDbLine
 10
732.420405887716
 20
950.6219906604949
 30
0.0
 11
732.420405887716
 21
944.271990660495
 31
0.0
  0
LINE
  5
121
330
1F
100
AcDbEntity
  8
0
  6
Continuous
 62
     7
100
AcDbLine
 10
732.420405887716
 20
1065.621990660495
 30
0.0
 11
732.420405887716
 21
1059.271990660495
 31
0.0
  0
LINE
  5
122
330
1F
100
AcDbEntity
  8
0
  6
Continuous
 62
     7
100
AcDbLine
 10
735.929132090934
 20
1267.216374707813
 30
0.0
 11
734.420405887716
 21
1267.242709621649
 31
0.0
  0
LINE
  5
123
330
1F
100
AcDbEntity
  8
0
  6
Continuous
 62
     7
100
AcDbLine
 10
735.929132090934
 20
1257.699224275772
 30
0.0
 11
734.420405887716
 21
1257.672889361936
 31
0.0
  0
LINE
  5
124
330
1F
100
AcDbEntity
  8
0
  6
Continuous
 62
     7
100
AcDbLine
 10
716.420405887716
 20
961.9219906604951
 30
0.0
 11
716.420405887716
 21
960.771990660495
 31
0.0
  0
LINE
  5
125
330
1F
100
AcDbEntity
  8
0
  6
Continuous
 62
     7
100
AcDbLine
 10
722.920405887716
 20
960.771990660495
 30
0.0
 11
716.420405887716
 21
960.771990660495
 31
0.0
  0
LINE
  5
126
330
1F
100
AcDbEntity
  8
0
  6
Continuous
 62
     7
100
AcDbLine
 10
722.920405887716
 20
951.771990660495
 30
0.0
 11
722.920405887716
 21
960.771990660495
 31
0.0
  0
LINE
  5
127
330
1F
100
AcDbEntity
  8
0
  6
Continuous
 62
     7
100
AcDbLine
 10
716.420405887716
 20
951.771990660495
 30
0.0
 11
722.920405887716
 21
951.771990660495
 31
0.0
  0
LINE
  5
128
330
1F
100
AcDbEntity
  8
0
  6
Continuous
 62
     7
100
AcDbLine
 10
716.420405887716
 20
950.6219906604949
 30
0.0
 11
716.420405887716
 21
943.853015915388
 31
0.0
  0
LINE
  5
129
330
1F
100
AcDbEntity
  8
0
  6
Continuous
 62
     7
100
AcDbLine
 10
716.420405887716
 20
951.771990660495
 30
0.0
 11
716.420405887716
 21
950.6219906604949
 31
0.0
  0
LINE
  5
12A
330
1F
100
AcDbEntity
  8
0
  6
Continuous
 62
     7
100
AcDbLine
 10
716.420405887716
 20
961.9219906604951
 30
0.0
 11
716.420405887716
 21
968.6909654056021
 31
0.0
  0
LINE
  5
12B
330
1F
100
AcDbEntity
  8
0
  6
Continuous
 62
     7
100
AcDbLine
 10
716.420405887716
 20
1066.771990660495
 30
0.0
 11
716.420405887716
 21
1065.621990660495
 31
0.0
  0
LINE
  5
12C
330
1F
100
AcDbEntity
  8
0
  6
Continuous
 62
     7
100
AcDbLine
 10
716.420405887716
 20
1058.853015915388
 30
0.0
 11
716.420405887716
 21
968.6909654056021
 31
0.0
  0
LINE
  5
12D
330
1F
100
AcDbEntity
  8
0
  6
Continuous
 62
     7
100
AcDbLine
 10
716.420405887716
 20
1066.771990660495
 30
0.0
 11
722.920405887716
 21
1066.771990660495
 31
0.0
  0
LINE
  5
12E
330
1F
100
AcDbEntity
  8
0
  6
Continuous
 62
     7
100
AcDbLine
 10
716.420405887716
 20
1058.853015915388
 30
0.0
 11
716.420405887716
 21
1065.621990660495
 31
0.0
  0
LINE
  5
12F
330
1F
100
AcDbEntity
  8
0
  6
Continuous
 62
     7
100
AcDbLine
 10
716.420405887716
 20
1076.921990660495
 30
0.0
 11
716.420405887716
 21
1083.690965405602
 31
0.0
  0
LINE
  5
130
330
1F
100
AcDbEntity
  8
0
  6
Continuous
 62
     7
100
AcDbLine
 10
716.420405887716
 20
1076.921990660495
 30
0.0
 11
716.420405887716
 21
1075.771990660495
 31
0.0
  0
LINE
  5
131
330
1F
100
AcDbEntity
  8
0
  6
Continuous
 62
     7
100
AcDbLine
 10
716.420405887716
 20
1348.853015915388
 30
0.0
 11
716.420405887716
 21
1083.690965405602
 31
0.0
  0
LINE
  5
132
330
1F
100
AcDbEntity
  8
0
  6
Continuous
 62
     7
100
AcDbLine
 10
722.920405887716
 20
1075.771990660495
 30
0.0
 11
716.420405887716
 21
1075.771990660495
 31
0.0
  0
LINE
  5
133
330
1F
100
AcDbEntity
  8
0
  6
Continuous
 62
     7
100
AcDbLine
 10
722.920405887716
 20
1066.771990660495
 30
0.0
 11
722.920405887716
 21
1075.771990660495
 31
0.0
  0
LINE
  5
134
330
1F
100
AcDbEntity
  8
0
  6
Continuous
 62
     7
100
AcDbLine
 10
732.420405887716
 20
968.271990660495
 30
0.0
 11
716.420405887716
 21
968.6909654056021
 31
0.0
  0
LINE
  5
135
330
1F
100
AcDbEntity
  8
0
  6
Continuous
 62
     7
100
AcDbLine
 10
716.420405887716
 20
1058.853015915388
 30
0.0
 11
732.420405887716
 21
1059.271990660495
 31
0.0
  0
LINE
  5
136
330
1F
100
AcDbEntity
  8
0
  6
Continuous
 62
     7
100
AcDbLine
 10
732.420405887716
 20
1061.771990660495
 30
0.0
 11
734.420405887716
 21
1061.771990660495
 31
0.0
  0
LINE
  5
137
330
1F
100
AcDbEntity
  8
0
  6
Continuous
 62
     7
100
AcDbLine
 10
732.420405887716
 20
1083.271990660495
 30
0.0
 11
716.420405887716
 21
1083.690965405602
 31
0.0
  0
LINE
  5
138
330
1F
100
AcDbEntity
  8
0
  6
Continuous
 62
     7
100
AcDbLine
 10
716.420405887716
 20
943.853015915388
 30
0.0
 11
732.420405887716
 21
944.271990660495
 31
0.0
  0
LINE
  5
139
330
1F
100
AcDbEntity
  8
0
  6
Continuous
 62
     7
100
AcDbLine
 10
732.420405887716
 20
946.771990660495
 30
0.0
 11
734.420405887716
 21
946.771990660495
 31
0.0
  0
LINE
  5
13A
330
1F
100
AcDbEntity
  8
0
  6
Continuous
 62
     7
100
AcDbLine
 10
732.420405887716
 20
950.6219906604949
 30
0.0
 11
716.420405887716
 21
950.6219906604949
 31
0.0
  0
LINE
  5
13B
330
1F
100
AcDbEntity
  8
0
  6
Continuous
 62
     7
100
AcDbLine
 10
716.420405887716
 20
961.9219906604951
 30
0.0
 11
732.420405887716
 21
961.9219906604951
 31
0.0
  0
LINE
  5
13C
330
1F
100
AcDbEntity
  8
0
  6
Continuous
 62
     7
100
AcDbLine
 10
716.420405887716
 20
1076.921990660495
 30
0.0
 11
732.420405887716
 21
1076.921990660495
 31
0.0
  0
LINE
  5
13D
330
1F
100
AcDbEntity
  8
0
  6
Continuous
 62
     7
100
AcDbLine
 10
732.420405887716
 20
1065.621990660495
 30
0.0
 11
716.420405887716
 21
1065.621990660495
 31
0.0
  0
LINE
  5
13E
330
1F
100
AcDbEntity
  8
0
  6
Continuous
 62
     7
100
AcDbLine
 10
716.420405887716
 20
943.853015915388
 30
0.0
 11
716.420405887716
 21
876.2719906604951
 31
0.0
  0
LINE
  5
13F
330
1F
100
AcDbEntity
  8
0
  6
Continuous
 62
     7
100
AcDbLine
 10
716.420405887716
 20
876.2719906604951
 30
0.0
 11
730.4902155134648
 21
876.5175801010403
 31
0.0
  0
LINE
  5
140
330
1F
100
AcDbEntity
  8
0
  6
Continuous
 62
     7
100
AcDbLine
 10
734.420405887716
 20
946.771990660495
 30
0.0
 11
734.420405887716
 21
880.5169708816658
 31
0.0
  0
LINE
  5
141
330
1F
100
AcDbEntity
  8
1
  6
Continuous
 62
     7
100
AcDbLine
 10
716.420405887716
 20
1075.771990660495
 30
0.0
 11
716.420405887716
 21
1066.771990660495
 31
0.0
  0
LINE
  5
142
330
1F
100
AcDbEntity
  8
1
  6
Continuous
 62
     7
100
AcDbLine
 10
716.420405887716
 20
960.771990660495
 30
0.0
 11
716.420405887716
 21
951.771990660495
 31
0.0
  0
LINE
  5
143
330
1F
100
AcDbEntity
  8
1
  6
Continuous
 62
     7
100
AcDbLine
 10
716.420405887716
 20
1356.771990660495
 30
0.0
 11
716.420405887716
 21
1365.771990660495
 31
0.0
  0
LINE
  5
144
330
1F
100
AcDbEntity
  8
0
  6
Continuous
 62
     7
100
AcDbLine
 10
736.420405887716
 20
1402.181763891021
 30
0.0
 11
736.420405887716
 21
1410.733835092553
 31
0.0
  0
LINE
  5
145
330
1F
100
AcDbEntity
  8
0
  6
Continuous
 62
     7
100
AcDbLine
 10
734.420405887716
 20
1401.67288936193
 30
0.0
 11
735.920405887716
 21
1401.699224275766
 31
0.0
  0
LINE
  5
146
330
1F
100
AcDbEntity
  8
0
  6
Continuous
 62
     7
100
AcDbLine
 10
734.420405887716
 20
1411.242709621643
 30
0.0
 11
735.920405887716
 21
1411.216374707807
 31
0.0
  0
LINE
  5
147
330
1F
100
AcDbEntity
  8
0
  6
Continuous
 62
     7
100
AcDbLine
 10
716.420405887716
 20
1348.853015915388
 30
0.0
 11
732.420405887716
 21
1349.271990660495
 31
0.0
  0
LINE
  5
148
330
1F
100
AcDbEntity
  8
0
  6
Continuous
 62
     7
100
AcDbLine
 10
732.420405887716
 20
1373.271990660495
 30
0.0
 11
716.420405887716
 21
1373.690965405602
 31
0.0
  0
LINE
  5
149
330
1F
100
AcDbEntity
  8
0
  6
Continuous
 62
     7
100
AcDbLine
 10
732.420405887716
 20
1366.91847055537
 30
0.0
 11
716.420405887716
 21
1366.91847055537
 31
0.0
  0
LINE
  5
14A
330
1F
100
AcDbEntity
  8
0
  6
Continuous
 62
     7
100
AcDbLine
 10
732.420405887716
 20
1355.61847055537
 30
0.0
 11
716.420405887716
 21
1355.61847055537
 31
0.0
  0
LINE
  5
14B
330
1F
100
AcDbEntity
  8
0
  6
Continuous
 62
     7
100
AcDbLine
 10
716.420405887716
 20
1356.771990660495
 30
0.0
 11
716.420405887716
 21
1355.61847055537
 31
0.0
  0
LINE
  5
14C
330
1F
100
AcDbEntity
  8
0
  6
Continuous
 62
     7
100
AcDbLine
 10
716.420405887716
 20
1355.61847055537
 30
0.0
 11
716.420405887716
 21
1348.853015915388
 31
0.0
  0
LINE
  5
14D
330
1F
100
AcDbEntity
  8
0
  6
Continuous
 62
     7
100
AcDbLine
 10
716.420405887716
 20
1366.91847055537
 30
0.0
 11
716.420405887716
 21
1365.771990660495
 31
0.0
  0
LINE
  5
14E
330
1F
100
AcDbEntity
  8
0
  6
Continuous
 62
     7
100
AcDbLine
 10
716.420405887716
 20
1356.771990660495
 30
0.0
 11
722.920405887716
 21
1356.771990660495
 31
0.0
  0
LINE
  5
14F
330
1F
100
AcDbEntity
  8
0
  6
Continuous
 62
     7
100
AcDbLine
 10
722.920405887716
 20
1356.771990660495
 30
0.0
 11
722.920405887716
 21
1365.771990660495
 31
0.0
  0
LINE
  5
150
330
1F
100
AcDbEntity
  8
0
  6
Continuous
 62
     7
100
AcDbLine
 10
722.920405887716
 20
1365.771990660495
 30
0.0
 11
716.420405887716
 21
1365.771990660495
 31
0.0
  0
LINE
  5
151
330
1F
100
AcDbEntity
  8
0
  6
Continuous
 62
     7
100
AcDbLine
 10
716.420405887716
 20
1373.690965405602
 30
0.0
 11
716.420405887716
 21
1366.91847055537
 31
0.0
  0
LINE
  5
152
330
1F
100
AcDbEntity
  8
0
  6
Continuous
 62
     7
100
AcDbLine
 10
732.420405887716
 20
1373.271990660495
 30
0.0
 11
732.420405887716
 21
1366.91847055537
 31
0.0
  0
LINE
  5
153
330
1F
100
AcDbEntity
  8
0
  6
Continuous
 62
     7
100
AcDbLine
 10
732.420405887716
 20
1355.61847055537
 30
0.0
 11
732.420405887716
 21
1349.271990660495
 31
0.0
  0
LINE
  5
154
330
1F
100
AcDbEntity
  8
0
  6
Continuous
 62
     7
100
AcDbLine
 10
734.420405887716
 20
1370.771990660495
 30
0.0
 11
732.420405887716
 21
1370.771990660495
 31
0.0
  0
LINE
  5
155
330
1F
100
AcDbEntity
  8
0
  6
Continuous
 62
     7
100
AcDbLine
 10
734.420405887716
 20
1370.771990660495
 30
0.0
 11
734.420405887716
 21
1437.027010439325
 31
0.0
  0
LINE
  5
156
330
1F
100
AcDbEntity
  8
0
  6
Continuous
 62
     7
100
AcDbLine
 10
732.420405887716
 20
1351.771990660495
 30
0.0
 11
734.420405887716
 21
1351.771990660495
 31
0.0
  0
LINE
  5
157
330
1F
100
AcDbEntity
  8
0
  6
Continuous
 62
     7
100
AcDbLine
 10
734.420405887716
 20
1370.771990660495
 30
0.0
 11
734.420405887716
 21
1351.771990660495
 31
0.0
  0
LINE
  5
158
330
1F
100
AcDbEntity
  8
0
  6
Continuous
 62
     7
100
AcDbLine
 10
734.420405887716
 20
1267.242709621649
 30
0.0
 11
734.420405887716
 21
1351.771990660495
 31
0.0
  0
LINE
  5
159
330
1F
100
AcDbEntity
  8
0
  6
Continuous
 62
     7
100
AcDbLine
 10
716.420405887716
 20
1373.690965405602
 30
0.0
 11
716.420405887716
 21
1441.271990660495
 31
0.0
  0
LINE
  5
15A
330
1F
100
AcDbEntity
  8
0
  6
Continuous
 62
     7
100
AcDbLine
 10
716.420405887716
 20
1441.271990660495
 30
0.0
 11
730.4902155134648
 21
1441.02640121995
 31
0.0
  0
LINE
  5
15B
330
1F
100
AcDbEntity
  8
0
  6
DASHED
 62
     7
100
AcDbLine
 10
345.73569502434
 20
168.6467950359504
 30
0.0
 11
476.7378272921499
 21
168.6467950359504
 31
0.0
  0
LINE
  5
15C
330
1F
100
AcDbEntity
  8
0
  6
DASHED
 62
     7
100
AcDbLine
 10
483.7367611582449
 20
175.6457289020455
 30
0.0
 11
483.7367611582449
 21
726.6478611698561
 31
0.0
  0
LINE
  5
15D
330
1F
100
AcDbEntity
  8
0
  6
DASHED
 62
     7
100
AcDbLine
 10
338.7367611582449
 20
175.6457289020455
 30
0.0
 11
338.7367611582449
 21
726.647861169856
 31
0.0
  0
LINE
  5
15E
330
1F
100
AcDbEntity
  8
0
  6
DASHED
 62
     7
100
AcDbLine
 10
476.7378272921499
 20
733.6467950359508
 30
0.0
 11
345.73569502434
 21
733.6467950359511
 31
0.0
  0
LINE
  5
15F
330
1F
100
AcDbEntity
  8
0
  6
Continuous
 62
     7
100
AcDbLine
 10
483.7367611582449
 20
1081.271990660495
 30
0.0
 11
479.386761158245
 21
1081.271990660495
 31
0.0
  0
ARC
  5
160
330
1F
100
AcDbEntity
  8
1
  6
Continuous
 62
     7
100
AcDbCircle
 10
730.275147277971
 20
880.6597161199063
 30
0.0
 40
4.147715653791354
100
AcDbArc
 50
272.9722458677691
 51
358.027754132225
  0
ARC
  5
161
102
{ACAD_REACTORS
330
22F
102
}
330
1F
100
AcDbEntity
  8
1
  6
Continuous
 62
     2
100
AcDbCircle
 10
385.310194517486
 20
1424.841212059617
 30
0.0
 40
0.2500000000001996
100
AcDbArc
 50
299.9816393689708
 51
119.9816393687903
  0
ARC
  5
162
102
{ACAD_REACTORS
330
22F
102
}
330
1F
100
AcDbEntity
  8
1
  6
Continuous
 62
     2
100
AcDbCircle
 10
385.310194517486
 20
1426.08116410282
 30
0.0
 40
0.25
100
AcDbArc
 50
270.0
 51
90.0
  0
ARC
  5
163
102
{ACAD_REACTORS
330
22F
102
}
330
1F
100
AcDbEntity
  8
1
  6
Continuous
 62
     2
100
AcDbCircle
 10
385.310194517486
 20
1427.321116146022
 30
0.0
 40
0.2499999999997451
100
AcDbArc
 50
240.0183606312097
 51
60.01836063102915
  0
ARC
  5
164
102
{ACAD_REACTORS
330
22E
102
}
330
1F
100
AcDbEntity
  8
1
  6
Continuous
 62
     2
100
AcDbCircle
 10
379.310194517486
 20
1424.841212059617
 30
0.0
 40
0.25
100
AcDbArc
 50
180.0
 51
0.0
  0
ARC
  5
165
102
{ACAD_REACTORS
330
22E
102
}
330
1F
100
AcDbEntity
  8
1
  6
Continuous
 62
     2
100
AcDbCircle
 10
379.310194517486
 20
1427.321116146022
 30
0.0
 40
0.25
100
AcDbArc
 50
0.0
 51
180.0
  0
ARC
  5
166
102
{ACAD_REACTORS
330
230
102
}
330
1F
100
AcDbEntity
  8
1
  6
Continuous
 62
     2
100
AcDbCircle
 10
382.060194517486
 20
1423.254673598078
 30
0.0
 40
0.2499999999995481
100
AcDbArc
 50
240.0183606311836
 51
60.0183606311333
  0
ARC
  5
167
102
{ACAD_REACTORS
330
230
102
}
330
1F
100
AcDbEntity
  8
1
  6
Continuous
 62
     2
100
AcDbCircle
 10
380.310194517486
 20
1427.898039222945
 30
0.0
 40
0.25
100
AcDbArc
 50
0.0
 51
180.0
  0
ARC
  5
168
102
{ACAD_REACTORS
330
231
102
}
330
1F
100
AcDbEntity
  8
1
  6
Continuous
 62
     2
100
AcDbCircle
 10
383.36146985813
 20
1428.481503866106
 30
0.0
 40
0.198724659356003
100
AcDbArc
 50
0.0
 51
150.0000000000709
  0
ARC
  5
169
102
{ACAD_REACTORS
330
231
102
}
330
1F
100
AcDbEntity
  8
1
  6
Continuous
 62
     2
100
AcDbCircle
 10
383.310194517486
 20
1423.687365905771
 30
0.0
 40
0.25
100
AcDbArc
 50
180.0
 51
0.0
  0
ARC
  5
16A
102
{ACAD_REACTORS
330
231
102
}
330
1F
100
AcDbEntity
  8
1
  6
Continuous
 62
     2
100
AcDbCircle
 10
381.310194517486
 20
1424.841852907294
 30
0.0
 40
0.25
100
AcDbArc
 50
180.0
 51
0.0
  0
ARC
  5
16B
102
{ACAD_REACTORS
330
231
102
}
330
1F
100
AcDbEntity
  8
1
  6
Continuous
 62
     2
100
AcDbCircle
 10
381.2589191768429
 20
1428.481503866106
 30
0.0
 40
0.1987246593563
100
AcDbArc
 50
29.99999999991272
 51
180.0
  0
ARC
  5
16C
330
1F
100
AcDbEntity
  8
1
  6
Continuous
 62
     7
100
AcDbCircle
 10
345.7352766280828
 20
883.2705061303328
 30
0.0
 40
6.998515482344466
100
AcDbArc
 50
179.9965746536143
 51
270.0034253463862
  0
ARC
  5
16D
330
1F
100
AcDbEntity
  8
0
  6
Continuous
 62
     7
100
AcDbCircle
 10
467.2367611582579
 20
1426.26866410282
 30
0.0
 40
2.78964051942512
100
AcDbArc
 50
90.0
 51
270.0
  0
ARC
  5
16E
330
1F
100
AcDbEntity
  8
0
  6
Continuous
 62
     7
100
AcDbCircle
 10
470.2367611582579
 20
1426.26866410282
 30
0.0
 40
2.789640519425802
100
AcDbArc
 50
270.0
 51
90.0
  0
ARC
  5
16F
330
1F
100
AcDbEntity
  8
0
  6
Continuous
 62
     7
100
AcDbCircle
 10
483.436761158245
 20
950.322050175552
 30
0.0
 40
0.2999999999998977
100
AcDbArc
 50
0.0
 51
135.0000000000384
  0
ARC
  5
170
330
1F
100
AcDbEntity
  8
0
  6
Continuous
 62
     7
100
AcDbCircle
 10
483.436761158245
 20
962.2219012586754
 30
0.0
 40
0.2999999999999944
100
AcDbArc
 50
224.9999999999616
 51
0.0
  0
ARC
  5
171
330
1F
100
AcDbEntity
  8
0
  6
Continuous
 62
     7
100
AcDbCircle
 10
483.4367611582459
 20
1367.215899531469
 30
0.0
 40
0.3000000000007581
100
AcDbArc
 50
224.9999999998772
 51
0.0
  0
ARC
  5
172
330
1F
100
AcDbEntity
  8
0
  6
Continuous
 62
     7
100
AcDbCircle
 10
483.4367611582459
 20
1355.322970298258
 30
0.0
 40
0.299999999999045
100
AcDbArc
 50
0.0
 51
135.0000000001228
  0
ARC
  5
173
330
1F
100
AcDbEntity
  8
0
  6
Continuous
 62
     7
100
AcDbCircle
 10
483.4367611582459
 20
1077.646254729207
 30
0.0
 40
0.3000000000005973
100
AcDbArc
 50
224.9999999998465
 51
0.0
  0
ARC
  5
174
330
1F
100
AcDbEntity
  8
0
  6
Continuous
 62
     7
100
AcDbCircle
 10
483.4367611582459
 20
1064.897726591783
 30
0.0
 40
0.299999999999045
100
AcDbArc
 50
0.0
 51
135.0000000001535
  0
ARC
  5
175
330
1F
100
AcDbEntity
  8
0
  6
Continuous
 62
     7
100
AcDbCircle
 10
339.0367611582449
 20
1355.319319555718
 30
0.0
 40
0.3000000000007581
100
AcDbArc
 50
45.00000000012282
 51
180.0
  0
ARC
  5
176
330
1F
100
AcDbEntity
  8
0
  6
Continuous
 62
     7
100
AcDbCircle
 10
409.7367611582579
 20
1426.26866410282
 30
0.0
 40
2.78964051942512
100
AcDbArc
 50
90.0
 51
270.0
  0
ARC
  5
177
330
1F
100
AcDbEntity
  8
0
  6
Continuous
 62
     7
100
AcDbCircle
 10
412.7367611582579
 20
1426.26866410282
 30
0.0
 40
2.789640519425802
100
AcDbArc
 50
270.0
 51
90.0
  0
ARC
  5
178
330
1F
100
AcDbEntity
  8
0
  6
Continuous
 62
     7
100
AcDbCircle
 10
355.2367611582579
 20
1426.26866410282
 30
0.0
 40
2.789640519425802
100
AcDbArc
 50
270.0
 51
90.0
  0
ARC
  5
179
330
1F
100
AcDbEntity
  8
0
  6
Continuous
 62
     7
100
AcDbCircle
 10
352.2367611582579
 20
1426.26866410282
 30
0.0
 40
2.78964051942512
100
AcDbArc
 50
90.0
 51
270.0
  0
ARC
  5
17A
330
1F
100
AcDbEntity
  8
0
  6
Continuous
 62
     7
100
AcDbCircle
 10
339.0367611582449
 20
1367.218434038622
 30
0.0
 40
0.2999999999999545
100
AcDbArc
 50
180.0
 51
315.0
  0
ARC
  5
17B
330
1F
100
AcDbEntity
  8
0
  6
Continuous
 62
     7
100
AcDbCircle
 10
339.0367611582449
 20
1065.32381310534
 30
0.0
 40
0.3000000000009189
100
AcDbArc
 50
45.00000000015353
 51
180.0
  0
ARC
  5
17C
330
1F
100
AcDbEntity
  8
0
  6
Continuous
 62
     7
100
AcDbCircle
 10
339.0367611582449
 20
1077.273614084247
 30
0.0
 40
0.2999999999999545
100
AcDbArc
 50
180.0
 51
315.0000000000307
  0
ARC
  5
17D
330
1F
100
AcDbEntity
  8
0
  6
Continuous
 62
     7
100
AcDbCircle
 10
339.0367611582449
 20
962.2215661184487
 30
0.0
 40
0.2999999999999545
100
AcDbArc
 50
180.0
 51
315.0
  0
ARC
  5
17E
330
1F
100
AcDbEntity
  8
0
  6
Continuous
 62
     7
100
AcDbCircle
 10
339.0367611582449
 20
950.3221996000734
 30
0.0
 40
0.2999999999998738
100
AcDbArc
 50
44.99999999995395
 51
180.0
  0
ARC
  5
17F
330
1F
100
AcDbEntity
  8
0
  6
Continuous
 62
     7
100
AcDbCircle
 10
468.736761158257
 20
892.7686641028193
 30
0.0
 40
2.789640519425973
100
AcDbArc
 50
0.0
 51
180.0
  0
ARC
  5
180
330
1F
100
AcDbEntity
  8
0
  6
Continuous
 62
     7
100
AcDbCircle
 10
353.736761158257
 20
889.7686641028196
 30
0.0
 40
2.78964051942512
100
AcDbArc
 50
180.0
 51
0.0
  0
ARC
  5
181
330
1F
100
AcDbEntity
  8
0
  6
Continuous
 62
     7
100
AcDbCircle
 10
468.736761158257
 20
889.7686641028193
 30
0.0
 40
2.78964051942512
100
AcDbArc
 50
180.0
 51
0.0
  0
ARC
  5
182
330
1F
100
AcDbEntity
  8
0
  6
Continuous
 62
     7
100
AcDbCircle
 10
411.236761158257
 20
889.7686641028193
 30
0.0
 40
2.78964051942512
100
AcDbArc
 50
180.0
 51
0.0
  0
ARC
  5
183
330
1F
100
AcDbEntity
  8
0
  6
Continuous
 62
     7
100
AcDbCircle
 10
353.7367611582579
 20
892.7686641028196
 30
0.0
 40
2.78964051942512
100
AcDbArc
 50
0.0
 51
180.0
  0
ARC
  5
184
330
1F
100
AcDbEntity
  8
0
  6
Continuous
 62
     7
100
AcDbCircle
 10
411.236761158257
 20
892.7686641028193
 30
0.0
 40
2.789640519425973
100
AcDbArc
 50
0.0
 51
180.0
  0
ARC
  5
185
330
1F
100
AcDbEntity
  8
0
  6
Continuous
 62
     7
100
AcDbCircle
 10
735.920405887716
 20
1266.716450860234
 30
0.0
 40
0.5
100
AcDbArc
 50
0.0
 51
89.00000000007776
  0
ARC
  5
186
330
1F
100
AcDbEntity
  8
0
  6
Continuous
 62
     7
100
AcDbCircle
 10
735.920405887716
 20
1258.19914812335
 30
0.0
 40
0.4999999999997676
100
AcDbArc
 50
270.9999999999241
 51
0.0
  0
ARC
  5
187
330
1F
100
AcDbEntity
  8
1
  6
Continuous
 62
     7
100
AcDbCircle
 10
431.986761158257
 20
1004.541990660495
 30
0.0
 40
3.5
100
AcDbArc
 50
0.0
 51
180.0
  0
ARC
  5
188
330
1F
100
AcDbEntity
  8
1
  6
Continuous
 62
     7
100
AcDbCircle
 10
431.986761158257
 20
1004.541990660495
 30
0.0
 40
3.5
100
AcDbArc
 50
180.0
 51
0.0
  0
ARC
  5
189
330
1F
100
AcDbEntity
  8
0
  6
Continuous
 62
     7
100
AcDbCircle
 10
347.2352548208289
 20
1390.957799491787
 30
0.0
 40
1.400000000000051
100
AcDbArc
 50
89.96917614842363
 51
270.0308238515764
  0
ARC
  5
18A
330
1F
100
AcDbEntity
  8
0
  6
Continuous
 62
     7
100
AcDbCircle
 10
347.2367611582579
 20
1390.957799491787
 30
0.0
 40
1.400000000000022
100
AcDbArc
 50
269.9691761506011
 51
90.0308238493989
  0
ARC
  5
18B
330
1F
100
AcDbEntity
  8
0
  6
Continuous
 62
     7
100
AcDbCircle
 10
475.2247463208289
 20
1390.957799491787
 30
0.0
 40
1.400000000000608
100
AcDbArc
 50
270.2458576841535
 51
89.75414231584631
  0
ARC
  5
18C
330
1F
100
AcDbEntity
  8
0
  6
Continuous
 62
     7
100
AcDbCircle
 10
475.2247463208289
 20
1390.957799491787
 30
0.0
 40
1.399999999999699
100
AcDbArc
 50
89.75414231584631
 51
270.2458576841535
  0
ARC
  5
18D
330
1F
100
AcDbEntity
  8
0
  6
Continuous
 62
     7
100
AcDbCircle
 10
347.2352548208298
 20
1296.957799491799
 30
0.0
 40
1.399999999999596
100
AcDbArc
 50
89.96917594088539
 51
270.0308236440009
  0
ARC
  5
18E
330
1F
100
AcDbEntity
  8
0
  6
Continuous
 62
     7
100
AcDbCircle
 10
347.2352548208298
 20
1296.957799491799
 30
0.0
 40
1.400000000000278
100
AcDbArc
 50
270.0308236440009
 51
89.96917594088539
  0
ARC
  5
18F
330
1F
100
AcDbEntity
  8
0
  6
Continuous
 62
     7
100
AcDbCircle
 10
475.22474632083
 20
1296.957799491799
 30
0.0
 40
1.399999999999449
100
AcDbArc
 50
89.75414231606028
 51
270.2458576842304
  0
ARC
  5
190
330
1F
100
AcDbEntity
  8
0
  6
Continuous
 62
     7
100
AcDbCircle
 10
475.22474632083
 20
1296.957799491799
 30
0.0
 40
1.399999999999707
100
AcDbArc
 50
270.2458576842304
 51
89.75414231606028
  0
ARC
  5
191
330
1F
100
AcDbEntity
  8
0
  6
Continuous
 62
     7
100
AcDbCircle
 10
735.9291360800889
 20
1402.190494083393
 30
0.0
 40
0.4913473721765628
100
AcDbArc
 50
268.9819229161702
 51
358.9819229162763
  0
ARC
  5
192
330
1F
100
AcDbEntity
  8
0
  6
Continuous
 62
     7
100
AcDbCircle
 10
735.9291360800889
 20
1410.72510490018
 30
0.0
 40
0.4913473721765628
100
AcDbArc
 50
1.01807708382974
 51
91.01807708382975
  0
ARC
  5
193
330
1F
100
AcDbEntity
  8
1
  6
Continuous
 62
     7
100
AcDbCircle
 10
730.2689255438208
 20
1436.878151119963
 30
0.0
 40
4.154148305333952
100
AcDbArc
 50
2.05357066581924
 51
86.94642933419263
  0
ARC
  5
194
330
1F
100
AcDbEntity
  8
1
  6
DASHED
 62
     7
100
AcDbCircle
 10
345.7352766280828
 20
175.6453105057885
 30
0.0
 40
6.998515482344466
100
AcDbArc
 50
179.9965746536155
 51
270.0034253463862
  0
CIRCLE
  5
195
330
1F
100
AcDbEntity
  8
1
  6
DASHED
 62
     7
100
AcDbCircle
 10
468.736761158257
 20
183.6434684782755
 30
0.0
 40
2.5
  0
CIRCLE
  5
196
330
1F
100
AcDbEntity
  8
1
  6
DASHED
 62
     7
100
AcDbCircle
 10
411.236761158257
 20
183.6434684782755
 30
0.0
 40
2.5
  0
CIRCLE
  5
197
330
1F
100
AcDbEntity
  8
1
  6
DASHED
 62
     7
100
AcDbCircle
 10
353.7367611582579
 20
183.6434684782755
 30
0.0
 40
2.5
  0
CIRCLE
  5
198
330
1F
100
AcDbEntity
  8
1
  6
DASHED
 62
     7
100
AcDbCircle
 10
468.736761158257
 20
718.6434684782754
 30
0.0
 40
2.5
  0
CIRCLE
  5
199
330
1F
100
AcDbEntity
  8
1
  6
DASHED
 62
     7
100
AcDbCircle
 10
411.236761158257
 20
718.6434684782754
 30
0.0
 40
2.5
  0
CIRCLE
  5
19A
330
1F
100
AcDbEntity
  8
1
  6
DASHED
 62
     7
100
AcDbCircle
 10
353.7367611582579
 20
718.6434684782754
 30
0.0
 40
2.5
  0
CIRCLE
  5
19B
330
1F
100
AcDbEntity
  8
0
  6
Continuous
 62
     7
100
AcDbCircle
 10
474.2367611582579
 20
1406.457799491787
 30
0.0
 40
4.758575216020006
  0
CIRCLE
  5
19C
330
1F
100
AcDbEntity
  8
0
  6
Continuous
 62
     7
100
AcDbCircle
 10
348.2367611582579
 20
1406.457799491787
 30
0.0
 40
4.758575216020006
  0
CIRCLE
  5
19D
330
1F
100
AcDbEntity
  8
0
  6
Continuous
 62
     7
100
AcDbCircle
 10
353.736761158257
 20
891.2686641028196
 30
0.0
 40
9.6574002172419
  0
CIRCLE
  5
19E
330
1F
100
AcDbEntity
  8
0
  6
Continuous
 62
     7
100
AcDbCircle
 10
347.7367611582579
 20
1246.957799491787
 30
0.0
 40
1.400000000000148
  0
CIRCLE
  5
19F
330
1F
100
AcDbEntity
  8
0
  6
Continuous
 62
     7
100
AcDbCircle
 10
474.7367611582579
 20
1246.957799491787
 30
0.0
 40
1.400000000000148
  0
CIRCLE
  5
1A0
330
1F
100
AcDbEntity
  8
0
  6
Continuous
 62
     7
100
AcDbCircle
 10
348.7367611582449
 20
1262.457799491792
 30
0.0
 40
4.758575216020063
  0
CIRCLE
  5
1A1
330
1F
100
AcDbEntity
  8
0
  6
Continuous
 62
     7
100
AcDbCircle
 10
473.7367611582579
 20
1262.457799491792
 30
0.0
 40
4.758575216020006
  0
CIRCLE
  5
1A2
330
1F
100
AcDbEntity
  8
0
  6
Continuous
 62
     7
100
AcDbCircle
 10
411.2367611582579
 20
1426.26866410282
 30
0.0
 40
9.6574002172419
  0
CIRCLE
  5
1A3
330
1F
100
AcDbEntity
  8
0
  6
Continuous
 62
     7
100
AcDbCircle
 10
353.7367611582579
 20
1426.26866410282
 30
0.0
 40
9.657400217241957
  0
CIRCLE
  5
1A4
330
1F
100
AcDbEntity
  8
0
  6
Continuous
 62
     7
100
AcDbCircle
 10
468.7367611582579
 20
1426.26866410282
 30
0.0
 40
9.6574002172419
  0
CIRCLE
  5
1A5
330
1F
100
AcDbEntity
  8
0
  6
Continuous
 62
     7
100
AcDbCircle
 10
347.7367611582579
 20
926.9577994917936
 30
0.0
 40
1.400000000000148
  0
CIRCLE
  5
1A6
330
1F
100
AcDbEntity
  8
0
  6
Continuous
 62
     7
100
AcDbCircle
 10
474.7367611582579
 20
926.9577994917989
 30
0.0
 40
1.400000000000148
  0
CIRCLE
  5
1A7
330
1F
100
AcDbEntity
  8
0
  6
Continuous
 62
     7
100
AcDbCircle
 10
468.736761158257
 20
891.2686641028196
 30
0.0
 40
9.657400217241104
  0
CIRCLE
  5
1A8
330
1F
100
AcDbEntity
  8
0
  6
Continuous
 62
     7
100
AcDbCircle
 10
411.236761158257
 20
891.2686641028196
 30
0.0
 40
9.657400217241104
  0
CIRCLE
  5
1A9
330
1F
100
AcDbEntity
  8
1
  6
Continuous
 62
     7
100
AcDbCircle
 10
390.4867611582579
 20
1403.041990660495
 30
0.0
 40
3.5
  0
CIRCLE
  5
1AA
330
1F
100
AcDbEntity
  8
1
  6
Continuous
 62
     7
100
AcDbCircle
 10
431.9867611582579
 20
1403.041990660495
 30
0.0
 40
3.5
  0
CIRCLE
  5
1AB
330
1F
100
AcDbEntity
  8
1
  6
Continuous
 62
     7
100
AcDbCircle
 10
390.486761158257
 20
1004.541990660495
 30
0.0
 40
3.5
  0
SPLINE
  5
1AC
330
1F
100
AcDbEntity
  8
0
  6
Continuous
 62
     7
100
AcDbSpline
210
0.0
220
0.0
230
1.0
 70
     8
 71
     3
 72
    15
 73
    11
 74
     9
 42
0.000000001
 43
0.0000000001
 44
0.00000001
 40
0.0
 40
0.0
 40
0.0
 40
0.0
 40
1.372142866321503
 40
2.744210418754808
 40
4.116220329250347
 40
5.488199044233481
 40
6.86017775921597
 40
8.232187669711452
 40
9.604255222144502
 40
10.97639808846543
 40
10.97639808846543
 40
10.97639808846543
 40
10.97639808846543
 10
338.7367611582449
 20
1434.2730567944
 30
0.0
 10
338.762805535351
 20
1434.731170858445
 30
0.0
 10
338.8148928744393
 20
1435.64737384024
 30
0.0
 10
339.231028002534
 20
1436.968824010865
 30
0.0
 10
339.8778201844091
 20
1438.186735954452
 30
0.0
 10
340.7548995540603
 20
1439.253852264681
 30
0.0
 10
341.8220158642889
 20
1440.130931634331
 30
0.0
 10
343.0399278078759
 20
1440.777723816206
 30
0.0
 10
344.3613779785006
 20
1441.1938589443
 30
0.0
 10
345.2775809602953
 20
1441.245946283389
 30
0.0
 10
345.73569502434
 20
1441.271990660495
 30
0.0
 11
338.7367611582449
 21
1434.2730567944
 31
0.0
 11
338.8712330122291
 21
1435.638594553239
 31
0.0
 11
339.2694816049604
 21
1436.951593956249
 31
0.0
 11
339.9162096211945
 21
1438.161616299848
 31
0.0
 11
340.7865721303659
 21
1439.222179688375
 31
0.0
 11
341.8471355188924
 21
1440.092542197546
 31
0.0
 11
343.0571578624919
 21
1440.739270213779
 31
0.0
 11
344.3701572655011
 21
1441.137518806511
 31
0.0
 11
345.73569502434
 21
1441.271990660495
 31
0.0
  0
SPLINE
  5
1AD
330
1F
100
AcDbEntity
  8
0
  6
Continuous
 62
     7
100
AcDbSpline
210
0.0
220
0.0
230
1.0
 70
     8
 71
     3
 72
    13
 73
     9
 74
     7
 42
0.000000001
 43
0.0000000001
 44
0.00000001
 40
0.0
 40
0.0
 40
0.0
 40
0.0
 40
0.1305262576654647
 40
0.2610531578821559
 40
0.3915811724479949
 40
0.5221104733932518
 40
0.6526408880985601
 40
0.783171946632307
 40
0.783171946632307
 40
0.783171946632307
 40
0.783171946632307
 10
478.579677538012
 20
1351.771990660495
 30
0.0
 10
478.582994208317
 20
1351.728356109086
 30
0.0
 10
478.5896275795449
 20
1351.641086793379
 30
0.0
 10
478.6421051301303
 20
1351.519147421094
 30
0.0
 10
478.7219579383989
 20
1351.414264713519
 30
0.0
 10
478.8268447171234
 20
1351.334415302658
 30
0.0
 10
478.9487883739509
 20
1351.281940212307
 30
0.0
 10
479.0360604370723
 20
1351.275307178455
 30
0.0
 10
479.0796965772049
 20
1351.271990660495
 30
0.0
 11
478.579677538012
 21
1351.771990660495
 31
0.0
 11
478.5967154023777
 21
1351.642581172445
 31
0.0
 11
478.6466673868879
 21
1351.521990660495
 31
0.0
 11
478.7261298181319
 21
1351.418437364161
 31
0.0
 11
478.8296870576079
 21
1351.338977958603
 31
0.0
 11
478.9502821614502
 21
1351.289027876111
 31
0.0
 11
479.0796965772049
 21
1351.271990660495
 31
0.0
  0
SPLINE
  5
1AE
330
1F
100
AcDbEntity
  8
0
  6
Continuous
 62
     7
100
AcDbSpline
210
0.0
220
0.0
230
1.0
 70
     8
 71
     3
 72
    13
 73
     9
 74
     7
 42
0.000000001
 43
0.0000000001
 44
0.00000001
 40
0.0
 40
0.0
 40
0.0
 40
0.0
 40
0.1305310585337469
 40
0.2610614732385826
 40
0.3915907741841069
 40
0.5221187887504377
 40
0.6526456889669985
 40
0.7831719466324558
 40
0.7831719466324558
 40
0.7831719466324558
 40
0.7831719466324558
 10
343.3938257393099
 20
1351.271990660495
 30
0.0
 10
343.4374618794423
 20
1351.275307178455
 30
0.0
 10
343.5247339425637
 20
1351.281940212306
 30
0.0
 10
343.646677599391
 20
1351.334415302658
 30
0.0
 10
343.7515643781159
 20
1351.414264713518
 30
0.0
 10
343.831417186385
 20
1351.519147421094
 30
0.0
 10
343.88389473697
 20
1351.641086793379
 30
0.0
 10
343.8905281081979
 20
1351.728356109086
 30
0.0
 10
343.8938447785029
 20
1351.771990660495
 30
0.0
 11
343.3938257393099
 21
1351.271990660495
 31
0.0
 11
343.5232401550646
 21
1351.289027876111
 31
0.0
 11
343.6438352589064
 21
1351.338977958603
 31
0.0
 11
343.7473924983829
 21
1351.418437364161
 31
0.0
 11
343.8268549296274
 21
1351.521990660495
 31
0.0
 11
343.8768069141373
 21
1351.642581172445
 31
0.0
 11
343.8938447785029
 21
1351.771990660495
 31
0.0
  0
SPLINE
  5
1AF
330
1F
100
AcDbEntity
  8
0
  6
Continuous
 62
     7
100
AcDbSpline
210
0.0
220
0.0
230
1.0
 70
     8
 71
     3
 72
    13
 73
     9
 74
     7
 42
0.000000001
 43
0.0000000001
 44
0.00000001
 40
0.0
 40
0.0
 40
0.0
 40
0.0
 40
0.1305310585337469
 40
0.2610614732390553
 40
0.3915907741841738
 40
0.5221187887498324
 40
0.6526456889669221
 40
0.7831719466323942
 40
0.7831719466323942
 40
0.7831719466323942
 40
0.7831719466323942
 10
479.0796965772049
 20
1371.271990660495
 30
0.0
 10
479.0360604370724
 20
1371.268674142535
 30
0.0
 10
478.9487883739512
 20
1371.262041108684
 30
0.0
 10
478.8268447171234
 20
1371.209566018332
 30
0.0
 10
478.721957938399
 20
1371.129716607471
 30
0.0
 10
478.6421051301302
 20
1371.024833899896
 30
0.0
 10
478.5896275795451
 20
1370.902894527611
 30
0.0
 10
478.582994208317
 20
1370.815625211904
 30
0.0
 10
478.579677538012
 20
1370.771990660495
 30
0.0
 11
479.0796965772049
 21
1371.271990660495
 31
0.0
 11
478.9502821614502
 21
1371.254953444879
 31
0.0
 11
478.8296870576079
 21
1371.205003362388
 31
0.0
 11
478.7261298181319
 21
1371.125543956829
 31
0.0
 11
478.6466673868879
 21
1371.021990660495
 31
0.0
 11
478.5967154023778
 21
1370.901400148545
 31
0.0
 11
478.579677538012
 21
1370.771990660495
 31
0.0
  0
SPLINE
  5
1B0
330
1F
100
AcDbEntity
  8
0
  6
Continuous
 62
     7
100
AcDbSpline
210
0.0
220
0.0
230
1.0
 70
     8
 71
     3
 72
    13
 73
     9
 74
     7
 42
0.000000001
 43
0.0000000001
 44
0.00000001
 40
0.0
 40
0.0
 40
0.0
 40
0.0
 40
0.1305262576656901
 40
0.2610531578828593
 40
0.391581172448649
 40
0.5221104733940349
 40
0.6526408880988707
 40
0.7831719466326175
 40
0.7831719466326175
 40
0.7831719466326175
 40
0.7831719466326175
 10
343.8938447785029
 20
1370.771990660495
 30
0.0
 10
343.8905281081978
 20
1370.815625211904
 30
0.0
 10
343.8838947369698
 20
1370.902894527612
 30
0.0
 10
343.8314171863852
 20
1371.024833899896
 30
0.0
 10
343.7515643781159
 20
1371.129716607472
 30
0.0
 10
343.646677599391
 20
1371.209566018331
 30
0.0
 10
343.5247339425637
 20
1371.262041108683
 30
0.0
 10
343.4374618794424
 20
1371.268674142535
 30
0.0
 10
343.3938257393099
 20
1371.271990660495
 30
0.0
 11
343.8938447785029
 21
1370.771990660495
 31
0.0
 11
343.8768069141372
 21
1370.901400148545
 31
0.0
 11
343.8268549296274
 21
1371.021990660495
 31
0.0
 11
343.7473924983829
 21
1371.125543956829
 31
0.0
 11
343.6438352589064
 21
1371.205003362388
 31
0.0
 11
343.5232401550646
 21
1371.254953444879
 31
0.0
 11
343.3938257393099
 21
1371.271990660495
 31
0.0
  0
SPLINE
  5
1B1
330
1F
100
AcDbEntity
  8
0
  6
Continuous
 62
     7
100
AcDbSpline
210
0.0
220
0.0
230
1.0
 70
     8
 71
     3
 72
    13
 73
     9
 74
     7
 42
0.000000001
 43
0.0000000001
 44
0.00000001
 40
0.0
 40
0.0
 40
0.0
 40
0.0
 40
0.1305262576657643
 40
0.2610531578831293
 40
0.3915811724488225
 40
0.5221104733939799
 40
0.6526408880990962
 40
0.7831719466318019
 40
0.7831719466318019
 40
0.7831719466318019
 40
0.7831719466318019
 10
478.7367611582449
 20
1080.771990660495
 30
0.0
 10
478.7400778285501
 20
1080.815625211904
 30
0.0
 10
478.7467111997787
 20
1080.902894527612
 30
0.0
 10
478.7991887503636
 20
1081.024833899897
 30
0.0
 10
478.8790415586327
 20
1081.129716607472
 30
0.0
 10
478.9839283373575
 20
1081.209566018332
 30
0.0
 10
479.1058719941847
 20
1081.262041108683
 30
0.0
 10
479.1931440573057
 20
1081.268674142535
 30
0.0
 10
479.2367801974378
 20
1081.271990660495
 30
0.0
 11
478.7367611582449
 21
1080.771990660495
 31
0.0
 11
478.7537990226112
 21
1080.901400148545
 31
0.0
 11
478.8037510071215
 21
1081.021990660495
 31
0.0
 11
478.8832134383655
 21
1081.125543956829
 31
0.0
 11
478.9867706778419
 21
1081.205003362388
 31
0.0
 11
479.1073657816842
 21
1081.254953444879
 31
0.0
 11
479.2367801974378
 21
1081.271990660495
 31
0.0
  0
SPLINE
  5
1B2
330
1F
100
AcDbEntity
  8
0
  6
Continuous
 62
     7
100
AcDbSpline
210
0.0
220
0.0
230
1.0
 70
     8
 71
     3
 72
    13
 73
     9
 74
     7
 42
0.000000001
 43
0.0000000001
 44
0.00000001
 40
0.0
 40
0.0
 40
0.0
 40
0.0
 40
0.1305310585327324
 40
0.2610614732378833
 40
0.3915907741833175
 40
0.5221187887493715
 40
0.652645688966128
 40
0.7831719466316595
 40
0.7831719466316595
 40
0.7831719466316595
 40
0.7831719466316595
 10
479.2367801974378
 20
1061.271990660495
 30
0.0
 10
479.1931440573057
 20
1061.275307178455
 30
0.0
 10
479.1058719941846
 20
1061.281940212307
 30
0.0
 10
478.9839283373574
 20
1061.334415302658
 30
0.0
 10
478.8790415586326
 20
1061.414264713518
 30
0.0
 10
478.7991887503641
 20
1061.519147421094
 30
0.0
 10
478.7467111997784
 20
1061.641086793379
 30
0.0
 10
478.7400778285501
 20
1061.728356109086
 30
0.0
 10
478.7367611582449
 20
1061.771990660495
 30
0.0
 11
479.2367801974378
 21
1061.271990660495
 31
0.0
 11
479.1073657816841
 21
1061.289027876111
 31
0.0
 11
478.9867706778419
 21
1061.338977958603
 31
0.0
 11
478.8832134383655
 21
1061.418437364161
 31
0.0
 11
478.8037510071215
 21
1061.521990660495
 31
0.0
 11
478.7537990226111
 21
1061.642581172445
 31
0.0
 11
478.7367611582449
 21
1061.771990660495
 31
0.0
  0
SPLINE
  5
1B3
330
1F
100
AcDbEntity
  8
0
  6
Continuous
 62
     7
100
AcDbSpline
210
0.0
220
0.0
230
1.0
 70
     8
 71
     3
 72
    13
 73
     9
 74
     7
 42
0.000000001
 43
0.0000000001
 44
0.00000001
 40
0.0
 40
0.0
 40
0.0
 40
0.0
 40
0.1305310585337469
 40
0.2610614732390553
 40
0.3915907741840353
 40
0.5221187887495136
 40
0.6526456889668133
 40
0.7831719466325109
 40
0.7831719466325109
 40
0.7831719466325109
 40
0.7831719466325109
 10
479.0796965772049
 20
1081.271990660495
 30
0.0
 10
479.0360604370724
 20
1081.268674142535
 30
0.0
 10
478.9487883739511
 20
1081.262041108683
 30
0.0
 10
478.8268447171235
 20
1081.209566018332
 30
0.0
 10
478.7219579383989
 20
1081.129716607472
 30
0.0
 10
478.6421051301302
 20
1081.024833899897
 30
0.0
 10
478.589627579545
 20
1080.902894527611
 30
0.0
 10
478.5829942083168
 20
1080.815625211904
 30
0.0
 10
478.579677538012
 20
1080.771990660495
 30
0.0
 11
479.0796965772049
 21
1081.271990660495
 31
0.0
 11
478.9502821614502
 21
1081.254953444879
 31
0.0
 11
478.8296870576079
 21
1081.205003362388
 31
0.0
 11
478.7261298181319
 21
1081.125543956829
 31
0.0
 11
478.6466673868879
 21
1081.021990660495
 31
0.0
 11
478.5967154023778
 21
1080.901400148545
 31
0.0
 11
478.579677538012
 21
1080.771990660495
 31
0.0
  0
SPLINE
  5
1B4
330
1F
100
AcDbEntity
  8
0
  6
Continuous
 62
     7
100
AcDbSpline
210
0.0
220
0.0
230
1.0
 70
     8
 71
     3
 72
    13
 73
     9
 74
     7
 42
0.000000001
 43
0.0000000001
 44
0.00000001
 40
0.0
 40
0.0
 40
0.0
 40
0.0
 40
0.1305262576654647
 40
0.2610531578821559
 40
0.3915811724481753
 40
0.5221104733932938
 40
0.6526408880986021
 40
0.783171946632349
 40
0.783171946632349
 40
0.783171946632349
 40
0.783171946632349
 10
478.579677538012
 20
1061.771990660495
 30
0.0
 10
478.582994208317
 20
1061.728356109086
 30
0.0
 10
478.5896275795448
 20
1061.641086793378
 30
0.0
 10
478.6421051301306
 20
1061.519147421095
 30
0.0
 10
478.7219579383986
 20
1061.414264713518
 30
0.0
 10
478.8268447171235
 20
1061.334415302658
 30
0.0
 10
478.9487883739508
 20
1061.281940212307
 30
0.0
 10
479.0360604370724
 20
1061.275307178455
 30
0.0
 10
479.0796965772049
 20
1061.271990660495
 30
0.0
 11
478.579677538012
 21
1061.771990660495
 31
0.0
 11
478.5967154023777
 21
1061.642581172445
 31
0.0
 11
478.6466673868879
 21
1061.521990660495
 31
0.0
 11
478.7261298181319
 21
1061.418437364161
 31
0.0
 11
478.8296870576079
 21
1061.338977958603
 31
0.0
 11
478.9502821614502
 21
1061.289027876111
 31
0.0
 11
479.0796965772049
 21
1061.271990660495
 31
0.0
  0
SPLINE
  5
1B5
330
1F
100
AcDbEntity
  8
0
  6
Continuous
 62
     7
100
AcDbSpline
210
0.0
220
0.0
230
1.0
 70
     8
 71
     3
 72
    13
 73
     9
 74
     7
 42
0.000000001
 43
0.0000000001
 44
0.00000001
 40
0.0
 40
0.0
 40
0.0
 40
0.0
 40
0.1305310585337617
 40
0.2610614732386409
 40
0.3915907741839189
 40
0.5221187887496739
 40
0.6526456889667019
 40
0.7831719466321666
 40
0.7831719466321666
 40
0.7831719466321666
 40
0.7831719466321666
 10
343.3938257393099
 20
946.271990660495
 30
0.0
 10
343.4374618794423
 20
946.2753071784546
 30
0.0
 10
343.5247339425638
 20
946.2819402123071
 30
0.0
 10
343.646677599391
 20
946.3344153026584
 30
0.0
 10
343.7515643781153
 20
946.414264713519
 30
0.0
 10
343.8314171863847
 20
946.5191474210939
 30
0.0
 10
343.8838947369699
 20
946.6410867933787
 30
0.0
 10
343.8905281081979
 20
946.7283561090862
 30
0.0
 10
343.8938447785029
 20
946.771990660495
 30
0.0
 11
343.3938257393099
 21
946.271990660495
 31
0.0
 11
343.5232401550646
 21
946.2890278761112
 31
0.0
 11
343.6438352589064
 21
946.3389779586029
 31
0.0
 11
343.7473924983825
 21
946.4184373641613
 31
0.0
 11
343.826854929627
 21
946.5219906604951
 31
0.0
 11
343.8768069141372
 21
946.6425811724451
 31
0.0
 11
343.8938447785029
 21
946.771990660495
 31
0.0
  0
SPLINE
  5
1B6
330
1F
100
AcDbEntity
  8
0
  6
Continuous
 62
     7
100
AcDbSpline
210
0.0
220
0.0
230
1.0
 70
     8
 71
     3
 72
    13
 73
     9
 74
     7
 42
0.000000001
 43
0.0000000001
 44
0.00000001
 40
0.0
 40
0.0
 40
0.0
 40
0.0
 40
0.1305262576655848
 40
0.2610531578826962
 40
0.3915811724484513
 40
0.5221104733936599
 40
0.6526408880984956
 40
0.7831719466322573
 40
0.7831719466322573
 40
0.7831719466322573
 40
0.7831719466322573
 10
343.8938447785029
 20
965.771990660495
 30
0.0
 10
343.8905281081979
 20
965.815625211904
 30
0.0
 10
343.8838947369699
 20
965.9028945276115
 30
0.0
 10
343.8314171863847
 20
966.0248338998965
 30
0.0
 10
343.7515643781153
 20
966.1297166074713
 30
0.0
 10
343.646677599391
 20
966.2095660183318
 30
0.0
 10
343.5247339425637
 20
966.262041108683
 30
0.0
 10
343.4374618794424
 20
966.2686741425355
 30
0.0
 10
343.3938257393099
 20
966.271990660495
 30
0.0
 11
343.8938447785029
 21
965.771990660495
 31
0.0
 11
343.8768069141371
 21
965.901400148545
 31
0.0
 11
343.826854929627
 21
966.0219906604951
 31
0.0
 11
343.7473924983825
 21
966.125543956829
 31
0.0
 11
343.6438352589064
 21
966.2050033623873
 31
0.0
 11
343.5232401550646
 21
966.2549534448789
 31
0.0
 11
343.3938257393099
 21
966.271990660495
 31
0.0
  0
SPLINE
  5
1B7
330
1F
100
AcDbEntity
  8
0
  6
Continuous
 62
     7
100
AcDbSpline
210
0.0
220
0.0
230
1.0
 70
     8
 71
     3
 72
    13
 73
     9
 74
     7
 42
0.000000001
 43
0.0000000001
 44
0.00000001
 40
0.0
 40
0.0
 40
0.0
 40
0.0
 40
0.1305310585337469
 40
0.2610614732385826
 40
0.3915907741837913
 40
0.5221187887500875
 40
0.6526456889668005
 40
0.7831719466322652
 40
0.7831719466322652
 40
0.7831719466322652
 40
0.7831719466322652
 10
343.3938257393099
 20
1061.271990660495
 30
0.0
 10
343.4374618794423
 20
1061.275307178455
 30
0.0
 10
343.5247339425637
 20
1061.281940212307
 30
0.0
 10
343.6466775993908
 20
1061.334415302658
 30
0.0
 10
343.7515643781155
 20
1061.414264713518
 30
0.0
 10
343.8314171863844
 20
1061.519147421094
 30
0.0
 10
343.88389473697
 20
1061.641086793379
 30
0.0
 10
343.8905281081979
 20
1061.728356109086
 30
0.0
 10
343.8938447785029
 20
1061.771990660495
 30
0.0
 11
343.3938257393099
 21
1061.271990660495
 31
0.0
 11
343.5232401550646
 21
1061.289027876111
 31
0.0
 11
343.6438352589064
 21
1061.338977958603
 31
0.0
 11
343.7473924983825
 21
1061.418437364161
 31
0.0
 11
343.826854929627
 21
1061.521990660495
 31
0.0
 11
343.8768069141372
 21
1061.642581172445
 31
0.0
 11
343.8938447785029
 21
1061.771990660495
 31
0.0
  0
SPLINE
  5
1B8
330
1F
100
AcDbEntity
  8
0
  6
Continuous
 62
     7
100
AcDbSpline
210
0.0
220
0.0
230
1.0
 70
     8
 71
     3
 72
    13
 73
     9
 74
     7
 42
0.000000001
 43
0.0000000001
 44
0.00000001
 40
0.0
 40
0.0
 40
0.0
 40
0.0
 40
0.1305262576656976
 40
0.261053157883019
 40
0.3915811724489544
 40
0.5221104733938863
 40
0.652640888098635
 40
0.7831719466324115
 40
0.7831719466324115
 40
0.7831719466324115
 40
0.7831719466324115
 10
343.8938447785029
 20
1080.771990660495
 30
0.0
 10
343.8905281081979
 20
1080.815625211904
 30
0.0
 10
343.8838947369698
 20
1080.902894527611
 30
0.0
 10
343.8314171863847
 20
1081.024833899897
 30
0.0
 10
343.7515643781156
 20
1081.129716607472
 30
0.0
 10
343.6466775993908
 20
1081.209566018332
 30
0.0
 10
343.5247339425637
 20
1081.262041108683
 30
0.0
 10
343.4374618794424
 20
1081.268674142535
 30
0.0
 10
343.3938257393099
 20
1081.271990660495
 30
0.0
 11
343.8938447785029
 21
1080.771990660495
 31
0.0
 11
343.8768069141371
 21
1080.901400148545
 31
0.0
 11
343.826854929627
 21
1081.021990660495
 31
0.0
 11
343.7473924983825
 21
1081.125543956829
 31
0.0
 11
343.6438352589064
 21
1081.205003362388
 31
0.0
 11
343.5232401550646
 21
1081.254953444879
 31
0.0
 11
343.3938257393099
 21
1081.271990660495
 31
0.0
  0
SPLINE
  5
1B9
330
1F
100
AcDbEntity
  8
0
  6
Continuous
 62
     7
100
AcDbSpline
210
0.0
220
0.0
230
1.0
 70
     8
 71
     3
 72
    13
 73
     9
 74
     7
 42
0.000000001
 43
0.0000000001
 44
0.00000001
 40
0.0
 40
0.0
 40
0.0
 40
0.0
 40
0.1305310585337469
 40
0.2610614732390987
 40
0.3915907741842172
 40
0.5221187887496954
 40
0.6526456889667851
 40
0.7831719466323699
 40
0.7831719466323699
 40
0.7831719466323699
 40
0.7831719466323699
 10
479.0796965772049
 20
966.271990660495
 30
0.0
 10
479.0360604370724
 20
966.2686741425352
 30
0.0
 10
478.9487883739508
 20
966.2620411086833
 30
0.0
 10
478.8268447171235
 20
966.209566018332
 30
0.0
 10
478.721957938399
 20
966.1297166074714
 30
0.0
 10
478.6421051301301
 20
966.0248338998964
 30
0.0
 10
478.5896275795452
 20
965.9028945276114
 30
0.0
 10
478.5829942083169
 20
965.8156252119038
 30
0.0
 10
478.579677538012
 20
965.771990660495
 30
0.0
 11
479.0796965772049
 21
966.271990660495
 31
0.0
 11
478.9502821614502
 21
966.254953444879
 31
0.0
 11
478.8296870576079
 21
966.2050033623873
 31
0.0
 11
478.7261298181319
 21
966.125543956829
 31
0.0
 11
478.6466673868879
 21
966.0219906604951
 31
0.0
 11
478.5967154023778
 21
965.901400148545
 31
0.0
 11
478.579677538012
 21
965.771990660495
 31
0.0
  0
SPLINE
  5
1BA
330
1F
100
AcDbEntity
  8
0
  6
Continuous
 62
     7
100
AcDbSpline
210
0.0
220
0.0
230
1.0
 70
     8
 71
     3
 72
    15
 73
    11
 74
     9
 42
0.000000001
 43
0.0000000001
 44
0.00000001
 40
0.0
 40
0.0
 40
0.0
 40
0.0
 40
1.372142866320699
 40
2.744210418753749
 40
4.116220329249231
 40
5.488199044232053
 40
6.860177759215258
 40
8.232187669710397
 40
9.604255222143554
 40
10.976398088465
 40
10.976398088465
 40
10.976398088465
 40
10.976398088465
 10
476.737827292151
 20
1441.271990660495
 30
0.0
 10
477.1959413561956
 20
1441.245946283389
 30
0.0
 10
478.1121443379901
 20
1441.1938589443
 30
0.0
 10
479.433594508615
 20
1440.777723816206
 30
0.0
 10
480.6515064522019
 20
1440.130931634331
 30
0.0
 10
481.7186227624305
 20
1439.25385226468
 30
0.0
 10
482.5957021320816
 20
1438.186735954451
 30
0.0
 10
483.2424943139572
 20
1436.968824010865
 30
0.0
 10
483.658629442051
 20
1435.64737384024
 30
0.0
 10
483.710716781139
 20
1434.731170858445
 30
0.0
 10
483.7367611582449
 20
1434.2730567944
 30
0.0
 11
476.737827292151
 21
1441.271990660495
 31
0.0
 11
478.1033650509896
 21
1441.137518806511
 31
0.0
 11
479.4163644539989
 21
1440.739270213779
 31
0.0
 11
480.6263867975983
 21
1440.092542197546
 31
0.0
 11
481.6869501861249
 21
1439.222179688375
 31
0.0
 11
482.5573126952964
 21
1438.161616299848
 31
0.0
 11
483.2040407115305
 21
1436.951593956249
 31
0.0
 11
483.6022893042613
 21
1435.638594553239
 31
0.0
 11
483.7367611582449
 21
1434.2730567944
 31
0.0
  0
SPLINE
  5
1BB
330
1F
100
AcDbEntity
  8
0
  6
Continuous
 62
     7
100
AcDbSpline
210
0.0
220
0.0
230
1.0
 70
     8
 71
     3
 72
    13
 73
     9
 74
     7
 42
0.000000001
 43
0.0000000001
 44
0.00000001
 40
0.0
 40
0.0
 40
0.0
 40
0.0
 40
0.1305262576655774
 40
0.2610531578824787
 40
0.3915811724479569
 40
0.5221104733931446
 40
0.6526408880984965
 40
0.7831719466322582
 40
0.7831719466322582
 40
0.7831719466322582
 40
0.7831719466322582
 10
478.579677538012
 20
946.771990660495
 30
0.0
 10
478.5829942083169
 20
946.7283561090861
 30
0.0
 10
478.5896275795451
 20
946.6410867933791
 30
0.0
 10
478.6421051301301
 20
946.5191474210937
 30
0.0
 10
478.7219579383991
 20
946.4142647135188
 30
0.0
 10
478.8268447171235
 20
946.3344153026584
 30
0.0
 10
478.9487883739509
 20
946.2819402123068
 30
0.0
 10
479.0360604370725
 20
946.2753071784547
 30
0.0
 10
479.0796965772049
 20
946.271990660495
 30
0.0
 11
478.579677538012
 21
946.771990660495
 31
0.0
 11
478.5967154023777
 21
946.642581172445
 31
0.0
 11
478.6466673868879
 21
946.5219906604951
 31
0.0
 11
478.7261298181319
 21
946.4184373641613
 31
0.0
 11
478.8296870576079
 21
946.3389779586029
 31
0.0
 11
478.9502821614502
 21
946.2890278761112
 31
0.0
 11
479.0796965772049
 21
946.271990660495
 31
0.0
  0
SPLINE
  5
1BC
330
1F
100
AcDbEntity
  8
0
  6
Continuous
 62
     7
100
AcDbSpline
210
0.0
220
0.0
230
1.0
 70
     8
 71
     3
 72
    15
 73
    11
 74
     9
 42
0.000000001
 43
0.0000000001
 44
0.00000001
 40
0.0
 40
0.0
 40
0.0
 40
0.0
 40
1.372142866321107
 40
2.744210418754155
 40
4.116220329249721
 40
5.488199044232979
 40
6.860177759215757
 40
8.232187669711236
 40
9.604255222144307
 40
10.97639808846495
 40
10.97639808846495
 40
10.97639808846495
 40
10.97639808846495
 10
483.7367611582449
 20
883.27092452659
 30
0.0
 10
483.7107167811388
 20
882.8128104625451
 30
0.0
 10
483.6586294420512
 20
881.8966074807506
 30
0.0
 10
483.2424943139569
 20
880.5751573101252
 30
0.0
 10
482.5957021320818
 20
879.3572453665383
 30
0.0
 10
481.7186227624305
 20
878.29012905631
 30
0.0
 10
480.6515064522021
 20
877.4130496866584
 30
0.0
 10
479.4335945086148
 20
876.7662575047842
 30
0.0
 10
478.1121443379901
 20
876.3501223766892
 30
0.0
 10
477.1959413561956
 20
876.298035037601
 30
0.0
 10
476.737827292151
 20
876.271990660495
 30
0.0
 11
483.7367611582449
 21
883.27092452659
 31
0.0
 11
483.6022893042613
 21
881.9053867677509
 31
0.0
 11
483.2040407115305
 21
880.5923873647415
 31
0.0
 11
482.5573126952963
 21
879.382365021142
 31
0.0
 11
481.6869501861249
 21
878.3218016326152
 31
0.0
 11
480.6263867975984
 21
877.4514391234441
 31
0.0
 11
479.4163644539989
 21
876.8047111072103
 31
0.0
 11
478.1033650509896
 21
876.4064625144791
 31
0.0
 11
476.737827292151
 21
876.271990660495
 31
0.0
  0
SPLINE
  5
1BD
330
1F
100
AcDbEntity
  8
0
  6
DASHED
 62
     7
100
AcDbSpline
210
0.0
220
0.0
230
1.0
 70
     8
 71
     3
 72
    15
 73
    11
 74
     9
 42
0.000000001
 43
0.0000000001
 44
0.00000001
 40
0.0
 40
0.0
 40
0.0
 40
0.0
 40
1.372142866321169
 40
2.74421041875393
 40
4.116220329249376
 40
5.488199044232397
 40
6.860177759215319
 40
8.232187669710731
 40
9.604255222143944
 40
10.97639808846556
 40
10.97639808846556
 40
10.97639808846556
 40
10.97639808846556
 10
483.7367611582449
 20
175.6457289020455
 30
0.0
 10
483.7107167811386
 20
175.1876148380007
 30
0.0
 10
483.6586294420507
 20
174.2714118562062
 30
0.0
 10
483.2424943139553
 20
172.9499616855814
 30
0.0
 10
482.5957021320814
 20
171.7320497419942
 30
0.0
 10
481.7186227624303
 20
170.6649334317654
 30
0.0
 10
480.6515064522023
 20
169.787854062114
 30
0.0
 10
479.4335945086146
 20
169.1410618802397
 30
0.0
 10
478.1121443379897
 20
168.7249267521447
 30
0.0
 10
477.1959413561949
 20
168.6728394130566
 30
0.0
 10
476.7378272921499
 20
168.6467950359504
 30
0.0
 11
483.7367611582449
 21
175.6457289020455
 31
0.0
 11
483.6022893042606
 21
174.2801911432064
 31
0.0
 11
483.2040407115293
 21
172.9671917401974
 31
0.0
 11
482.5573126952958
 21
171.7571693965978
 31
0.0
 11
481.6869501861249
 21
170.6966060080709
 31
0.0
 11
480.6263867975984
 21
169.8262434988996
 31
0.0
 11
479.4163644539989
 21
169.1795154826659
 31
0.0
 11
478.1033650509895
 21
168.7812668899346
 31
0.0
 11
476.7378272921499
 21
168.6467950359504
 31
0.0
  0
SPLINE
  5
1BE
330
1F
100
AcDbEntity
  8
0
  6
DASHED
 62
     7
100
AcDbSpline
210
0.0
220
0.0
230
1.0
 70
     8
 71
     3
 72
    15
 73
    11
 74
     9
 42
0.000000001
 43
0.0000000001
 44
0.00000001
 40
0.0
 40
0.0
 40
0.0
 40
0.0
 40
1.372142866321593
 40
2.744210418754806
 40
4.116220329250288
 40
5.488199044233109
 40
6.860177759216228
 40
8.232187669711767
 40
9.604255222144706
 40
10.97639808846581
 40
10.97639808846581
 40
10.97639808846581
 40
10.97639808846581
 10
476.7378272921499
 20
733.6467950359508
 30
0.0
 10
477.1959413561949
 20
733.6207506588447
 30
0.0
 10
478.1121443379898
 20
733.568663319757
 30
0.0
 10
479.4335945086148
 20
733.1525281916618
 30
0.0
 10
480.6515064522021
 20
732.5057360097871
 30
0.0
 10
481.7186227624304
 20
731.6286566401359
 30
0.0
 10
482.5957021320819
 20
730.5615403299075
 30
0.0
 10
483.2424943139569
 20
729.3436283863207
 30
0.0
 10
483.6586294420511
 20
728.0221782156955
 30
0.0
 10
483.7107167811388
 20
727.1059752339006
 30
0.0
 10
483.7367611582449
 20
726.6478611698561
 30
0.0
 11
476.7378272921499
 21
733.6467950359508
 31
0.0
 11
478.1033650509895
 21
733.5123231819668
 31
0.0
 11
479.4163644539989
 21
733.1140745892355
 31
0.0
 11
480.6263867975983
 21
732.4673465730017
 31
0.0
 11
481.6869501861249
 21
731.5969840638305
 31
0.0
 11
482.5573126952964
 21
730.5364206753039
 31
0.0
 11
483.2040407115305
 21
729.3263983317045
 31
0.0
 11
483.6022893042613
 21
728.0133989286952
 31
0.0
 11
483.7367611582449
 21
726.6478611698561
 31
0.0
  0
SPLINE
  5
1BF
330
1F
100
AcDbEntity
  8
0
  6
DASHED
 62
     7
100
AcDbSpline
210
0.0
220
0.0
230
1.0
 70
     8
 71
     3
 72
    15
 73
    11
 74
     9
 42
0.000000001
 43
0.0000000001
 44
0.00000001
 40
0.0
 40
0.0
 40
0.0
 40
0.0
 40
1.372142866321389
 40
2.744210418754477
 40
4.116220329249701
 40
5.488199044232835
 40
6.860177759215949
 40
8.232187669711479
 40
9.604255222144495
 40
10.97639808846543
 40
10.97639808846543
 40
10.97639808846543
 40
10.97639808846543
 10
338.7367611582449
 20
726.647861169856
 30
0.0
 10
338.7628055353511
 20
727.1059752339008
 30
0.0
 10
338.8148928744392
 20
728.0221782156957
 30
0.0
 10
339.2310280025342
 20
729.3436283863207
 30
0.0
 10
339.8778201844086
 20
730.5615403299078
 30
0.0
 10
340.75489955406
 20
731.6286566401362
 30
0.0
 10
341.8220158642885
 20
732.5057360097873
 30
0.0
 10
343.0399278078759
 20
733.1525281916618
 30
0.0
 10
344.3613779785007
 20
733.5686633197568
 30
0.0
 10
345.2775809602953
 20
733.6207506588448
 30
0.0
 10
345.73569502434
 20
733.6467950359511
 30
0.0
 11
338.7367611582449
 21
726.647861169856
 31
0.0
 11
338.8712330122291
 21
728.0133989286953
 31
0.0
 11
339.2694816049604
 21
729.3263983317046
 31
0.0
 11
339.9162096211941
 21
730.5364206753039
 31
0.0
 11
340.7865721303655
 21
731.5969840638306
 31
0.0
 11
341.8471355188923
 21
732.4673465730019
 31
0.0
 11
343.0571578624919
 21
733.1140745892357
 31
0.0
 11
344.3701572655011
 21
733.5123231819668
 31
0.0
 11
345.73569502434
 21
733.6467950359511
 31
0.0
  0
ARC
  5
1C0
102
{ACAD_REACTORS
330
22F
102
}
330
1F
100
AcDbEntity
  8
1
  6
Continuous
 62
     2
100
AcDbCircle
 10
384.310194517486
 20
1424.264288982694
 30
0.0
 40
0.25
100
AcDbArc
 50
180.0
 51
299.9816393689708
  0
ARC
  5
1C1
102
{ACAD_REACTORS
330
22F
102
}
330
1F
100
AcDbEntity
  8
1
  6
Continuous
 62
     2
100
AcDbCircle
 10
384.310194517486
 20
1427.898039222945
 30
0.0
 40
0.2500000000001996
100
AcDbArc
 50
60.01836063102915
 51
180.0
  0
ARC
  5
1C2
330
1F
100
AcDbEntity
  8
1
  6
Continuous
 62
     2
100
AcDbCircle
 10
388.5600556671559
 20
1426.08116410282
 30
0.0
 40
0.1250000000011432
100
AcDbArc
 50
299.9816393689657
 51
60.01836063061771
  0
ARC
  5
1C3
330
1F
100
AcDbEntity
  8
1
  6
Continuous
 62
     2
100
AcDbCircle
 10
376.0603333678168
 20
1426.08116410282
 30
0.0
 40
0.124999999999454
100
AcDbArc
 50
119.981639369292
 51
240.0183606311246
  0
ARC
  5
1C4
102
{ACAD_REACTORS
330
230
102
}
330
1F
100
AcDbEntity
  8
1
  6
Continuous
 62
     2
100
AcDbCircle
 10
380.560194517486
 20
1424.408679963844
 30
0.0
 40
0.5
100
AcDbArc
 50
180.0
 51
240.0183606311911
  0
ARC
  5
1C5
102
{ACAD_REACTORS
330
231
102
}
330
1F
100
AcDbEntity
  8
1
  6
Continuous
 62
     2
100
AcDbCircle
 10
382.310194517486
 20
1426.33116410282
 30
0.0
 40
0.124999999999961
100
AcDbArc
 50
210.0000000000103
 51
329.9999999999767
  0
ARC
  5
1C6
330
1F
100
AcDbEntity
  8
1
  6
Continuous
 62
     7
100
AcDbCircle
 10
479.2367611582449
 20
1352.254341148157
 30
0.0
 40
0.5
100
AcDbArc
 50
180.0
 51
314.9999999999953
  0
ARC
  5
1C7
330
1F
100
AcDbEntity
  8
1
  6
Continuous
 62
     7
100
AcDbCircle
 10
479.2367611582449
 20
1370.284528681571
 30
0.0
 40
0.5000000000003658
100
AcDbArc
 50
44.99999999993091
 51
180.0
  0
ARC
  5
1C8
330
1F
100
AcDbEntity
  8
1
  6
Continuous
 62
     7
100
AcDbCircle
 10
343.236761158269
 20
1352.250690405593
 30
0.0
 40
0.4999999999997629
100
AcDbArc
 50
225.0
 51
0.0
  0
ARC
  5
1C9
330
1F
100
AcDbEntity
  8
1
  6
Continuous
 62
     7
100
AcDbCircle
 10
343.236761158269
 20
1370.287063188747
 30
0.0
 40
0.5
100
AcDbArc
 50
0.0
 51
134.9999999999263
  0
ARC
  5
1CA
330
1F
100
AcDbEntity
  8
1
  6
Continuous
 62
     7
100
AcDbCircle
 10
343.236761158269
 20
1062.255183955215
 30
0.0
 40
0.500000000000406
100
AcDbArc
 50
225.0000000000737
 51
0.0
  0
ARC
  5
1CB
330
1F
100
AcDbEntity
  8
1
  6
Continuous
 62
     7
100
AcDbCircle
 10
343.236761158269
 20
1080.342243234373
 30
0.0
 40
0.5
100
AcDbArc
 50
0.0
 51
135.0
  0
ARC
  5
1CC
330
1F
100
AcDbEntity
  8
1
  6
Continuous
 62
     7
100
AcDbCircle
 10
479.2367611582449
 20
947.2534210254505
 30
0.0
 40
0.5
100
AcDbArc
 50
180.0
 51
315.0000000000507
  0
ARC
  5
1CD
330
1F
100
AcDbEntity
  8
1
  6
Continuous
 62
     7
100
AcDbCircle
 10
479.2367611582449
 20
965.2905304087772
 30
0.0
 40
0.5000000000003658
100
AcDbArc
 50
44.99999999993091
 51
180.0
  0
ARC
  5
1CE
330
1F
100
AcDbEntity
  8
1
  6
Continuous
 62
     7
100
AcDbCircle
 10
343.236761158269
 20
947.2535704499478
 30
0.0
 40
0.5000000000000844
100
AcDbArc
 50
225.0000000000369
 51
0.0
  0
ARC
  5
1CF
330
1F
100
AcDbEntity
  8
1
  6
Continuous
 62
     7
100
AcDbCircle
 10
343.236761158269
 20
965.2901952685745
 30
0.0
 40
0.5
100
AcDbArc
 50
0.0
 51
134.9999999999908
  0
MTEXT
  5
1D0
330
1F
100
AcDbEntity
  8
1
 62
     7
100
AcDbMText
 10
411.2367611582449
 20
773.6467950359507
 30
0.0
 40
25.0
 41
0.0
 71
     8
 72
     1
  1
Wall fastening holes
  7
CONVERTER_11
 73
     1
 44
1.32052821128451
  0
DIMENSION
  5
1DC
330
1F
100
AcDbEntity
  8
1
100
AcDbDimension
  2
*D3
 10
543.7367611582449
 20
1441.271990660495
 30
0.0
 11
526.2367611582449
 21
1158.771990660495
 31
0.0
 70
    32
  1
<>
 71
     5
 42
-1.0
 53
90.0
  3
ME10_DIM_10
100
AcDbAlignedDimension
 13
476.737827292151
 23
876.271990660495
 33
0.0
 14
476.737827292151
 24
1441.271990660495
 34
0.0
 50
90.0
100
AcDbRotatedDimension
  0
DIMENSION
  5
1E9
330
1F
100
AcDbEntity
  8
1
100
AcDbDimension
  2
*D4
 10
543.7367611582449
 20
718.6434684782754
 30
0.0
 11
526.2367611582449
 21
760.6451317571132
 31
0.0
 70
    32
  1
<>
 71
     5
 42
-1.0
 53
90.0
  3
ME10_DIM_11
100
AcDbAlignedDimension
 13
476.7378272921499
 23
733.6467950359508
 33
0.0
 14
473.486761158257
 24
718.6434684782754
 34
0.0
 50
90.0
100
AcDbRotatedDimension
  0
DIMENSION
  5
1F4
330
1F
100
AcDbEntity
  8
1
100
AcDbDimension
  2
*D5
 10
543.7367611582449
 20
183.6434684782757
 30
0.0
 11
526.2367611582449
 21
451.1434684782755
 31
0.0
 70
    32
  1
<>
 71
     5
 42
-1.0
 53
90.0
  3
ME10_DIM_12
100
AcDbAlignedDimension
 13
473.486761158257
 23
718.6434684782754
 33
0.0
 14
473.486761158257
 24
183.6434684782755
 34
0.0
 50
90.0
100
AcDbRotatedDimension
  0
DIMENSION
  5
201
330
1F
100
AcDbEntity
  8
1
100
AcDbDimension
  2
*D6
 10
468.7367611582571
 20
128.6467950359504
 30
0.0
 11
510.3713110970618
 21
146.1467950359504
 31
0.0
 70
    32
  1
<>
 71
     5
 42
-1.0
 53
0.00013888888889
  3
ME10_DIM_13
100
AcDbAlignedDimension
 13
483.7367611582449
 23
175.6457289020455
 33
0.0
 14
468.736761158257
 24
178.8934684782755
 34
0.0
100
AcDbRotatedDimension
  0
DIMENSION
  5
20C
330
1F
100
AcDbEntity
  8
1
100
AcDbDimension
  2
*D7
 10
353.7367611582575
 20
128.6467950359504
 30
0.0
 11
411.236761158257
 21
146.1467950359504
 31
0.0
 70
    32
  1
<>
 71
     5
 42
-1.0
 53
0.00013888888889
  3
ME10_DIM_14
100
AcDbAlignedDimension
 13
468.736761158257
 23
178.8934684782755
 33
0.0
 14
353.7367611582579
 24
178.8934684782755
 34
0.0
100
AcDbRotatedDimension
  0
DIMENSION
  5
219
330
1F
100
AcDbEntity
  8
1
100
AcDbDimension
  2
*D8
 10
716.420405887716
 20
836.271990660495
 30
0.0
 11
761.920405887716
 21
853.771990660495
 31
0.0
 70
    32
  1
<>
 71
     5
 42
-1.0
 53
0.00013888888889
  3
ME10_DIM_15
100
AcDbAlignedDimension
 13
734.420405887716
 23
880.5169708816658
 33
0.0
 14
716.420405887716
 24
876.2719906604951
 34
0.0
100
AcDbRotatedDimension
  0
DIMENSION
  5
224
330
1F
100
AcDbEntity
  8
1
100
AcDbDimension
  2
*D9
 10
338.7367611582449
 20
836.271990660495
 30
0.0
 11
411.2367611582449
 21
853.771990660495
 31
0.0
 70
    32
  1
<>
 71
     5
 42
-1.0
 53
0.00013888888889
  3
ME10_DIM_16
100
AcDbAlignedDimension
 13
483.7367611582449
 23
883.27092452659
 33
0.0
 14
338.7367611582449
 24
883.27092452659
 34
0.0
100
AcDbRotatedDimension
  0
INSERT
  5
22D
330
1F
100
AcDbEntity
  8
1
100
AcDbBlockReference
  2
*D10
 10
0.0
 20
0.0
 30
0.0
  0
HATCH
  5
22E
330
1F
100
AcDbEntity
  8
1
  6
Continuous
 62
     2
100
AcDbHatch
 10
0.0
 20
0.0
 30
0.0
210
0.0
220
0.0
230
1.0
  2
_USER
 70
     0
 71
     1
 91
        1
 92
        1
 93
        5
 72
     1
 10
379.560194517486
 20
1427.321116146022
 11
379.560194517486
 21
1424.985603040767
 72
     1
 10
379.560194517486
 20
1424.985603040767
 11
379.560194517486
 21
1424.841212059617
 72
     2
 10
379.310194517486
 20
1424.841212059617
 40
0.25
 50
0.0
 51
180.0
 73
     0
 72
     1
 10
379.060194517486
 20
1424.841212059617
 11
379.060194517486
 21
1427.321116146022
 72
     2
 10
379.310194517486
 20
1427.321116146022
 40
0.25
 50
180.0
 51
360.0
 73
     0
 97
        5
330
B6
330
B5
330
164
330
B4
330
165
 75
     1
 76
     0
 52
45.0
 41
0.2
 77
     0
 78
     1
 53
45.0
 43
0.0
 44
0.0
 45
-0.1414213562373095
 46
0.1414213562373095
 79
     0
 98
        1
 10
0.0
 20
0.0
  0
HATCH
  5
22F
330
1F
100
AcDbEntity
  8
1
  6
Continuous
 62
     2
100
AcDbHatch
 10
0.0
 20
0.0
 30
0.0
210
0.0
220
0.0
230
1.0
  2
_USER
 70
     0
 71
     1
 91
        1
 92
        1
 93
       14
 72
     1
 10
384.435125130859
 20
1428.114585619457
 11
385.435125130859
 21
1427.537662542534
 72
     2
 10
385.310194517486
 20
1427.321116146022
 40
0.2499999999997451
 50
299.9816393689708
 51
479.9816393687903
 73
     0
 72
     1
 10
385.185263904114
 20
1427.10456974951
 11
384.560194517486
 21
1427.465186703333
 72
     1
 10
384.560194517486
 20
1427.465186703333
 11
384.560194517486
 21
1426.33116410282
 72
     1
 10
384.560194517486
 20
1426.33116410282
 11
385.310194517486
 21
1426.33116410282
 72
     2
 10
385.310194517486
 20
1426.08116410282
 40
0.25
 50
270.0
 51
450.0
 73
     0
 72
     1
 10
385.310194517486
 20
1425.83116410282
 11
384.560194517486
 21
1425.83116410282
 72
     1
 10
384.560194517486
 20
1425.83116410282
 11
384.560194517486
 21
1424.697141502305
 72
     1
 10
384.560194517486
 20
1424.697141502305
 11
385.185263904114
 21
1425.057758456129
 72
     2
 10
385.310194517486
 20
1424.841212059617
 40
0.2500000000001996
 50
240.0183606312097
 51
420.0183606310291
 73
     0
 72
     1
 10
385.435125130859
 20
1424.624665663105
 11
384.435125130859
 21
1424.047742586182
 72
     2
 10
384.310194517486
 20
1424.264288982694
 40
0.25
 50
60.01836063102913
 51
180.0
 73
     0
 72
     1
 10
384.060194517486
 20
1424.264288982694
 11
384.060194517486
 21
1427.898039222945
 72
     2
 10
384.310194517486
 20
1427.898039222945
 40
0.2500000000001996
 50
180.0
 51
299.9816393689708
 73
     0
 97
       14
330
B3
330
163
330
B2
330
B1
330
B0
330
162
330
AF
330
AE
330
AD
330
161
330
AC
330
1C0
330
AB
330
1C1
 75
     1
 76
     0
 52
45.0
 41
0.2
 77
     0
 78
     1
 53
45.0
 43
0.0
 44
0.0
 45
-0.1414213562373095
 46
0.1414213562373095
 79
     0
 98
        1
 10
0.0
 20
0.0
  0
HATCH
  5
230
330
1F
100
AcDbEntity
  8
1
  6
Continuous
 62
     2
100
AcDbHatch
 10
0.0
 20
0.0
 30
0.0
210
0.0
220
0.0
230
1.0
  2
_USER
 70
     0
 71
     1
 91
        1
 92
        1
 93
        7
 72
     1
 10
380.560194517486
 20
1427.898039222945
 11
380.560194517486
 21
1424.408679963844
 72
     1
 10
380.560194517486
 20
1424.408679963844
 11
382.185125130859
 21
1423.471219994591
 72
     2
 10
382.060194517486
 20
1423.254673598078
 40
0.2499999999995481
 50
299.9816393688667
 51
479.9816393688164
 73
     0
 72
     1
 10
381.935263904114
 20
1423.038127201566
 11
380.3103332907419
 21
1423.97558717082
 72
     2
 10
380.560194517486
 20
1424.408679963844
 40
0.5
 50
119.9816393688089
 51
180.0
 73
     0
 72
     1
 10
380.060194517486
 20
1424.408679963844
 11
380.060194517486
 21
1427.898039222945
 72
     2
 10
380.310194517486
 20
1427.898039222945
 40
0.25
 50
180.0
 51
360.0
 73
     0
 97
        7
330
B9
330
B8
330
166
330
B7
330
1C4
330
BA
330
167
 75
     1
 76
     0
 52
45.0
 41
0.2
 77
     0
 78
     1
 53
45.0
 43
0.0
 44
0.0
 45
-0.1414213562373095
 46
0.1414213562373095
 79
     0
 98
        1
 10
0.0
 20
0.0
  0
HATCH
  5
231
330
1F
100
AcDbEntity
  8
1
  6
Continuous
 62
     2
100
AcDbHatch
 10
0.0
 20
0.0
 30
0.0
210
0.0
220
0.0
230
1.0
  2
_USER
 70
     0
 71
     1
 91
        1
 92
        1
 93
       16
 72
     1
 10
381.431019780204
 20
1428.580866195784
 11
382.310194517486
 21
1427.08116410282
 72
     1
 10
382.310194517486
 20
1427.08116410282
 11
383.189369254769
 21
1428.580866195784
 72
     2
 10
383.36146985813
 20
1428.481503866106
 40
0.198724659356003
 50
209.9999999999291
 51
360.0
 73
     0
 72
     1
 10
383.560194517486
 20
1428.481503866106
 11
383.560194517486
 21
1423.687365905771
 72
     2
 10
383.310194517486
 20
1423.687365905771
 40
0.25
 50
0.0
 51
180.0
 73
     0
 72
     1
 10
383.060194517486
 20
1423.687365905771
 11
383.060194517486
 21
1426.08116410282
 72
     1
 10
383.060194517486
 20
1426.08116410282
 11
383.060194517486
 21
1427.380202208496
 72
     1
 10
383.060194517486
 20
1427.380202208496
 11
382.418447692959
 21
1426.26866410282
 72
     2
 10
382.310194517486
 20
1426.33116410282
 40
0.124999999999961
 50
30.00000000002332
 51
149.9999999999897
 73
     0
 72
     1
 10
382.201941342013
 20
1426.26866410282
 11
381.560194517486
 21
1427.380202208496
 72
     1
 10
381.560194517486
 20
1427.380202208496
 11
381.560194517486
 21
1426.08116410282
 72
     1
 10
381.560194517486
 20
1426.08116410282
 11
381.560194517486
 21
1424.841852907294
 72
     2
 10
381.310194517486
 20
1424.841852907294
 40
0.25
 50
0.0
 51
180.0
 73
     0
 72
     1
 10
381.060194517486
 20
1424.841852907294
 11
381.060194517486
 21
1426.08116410282
 72
     1
 10
381.060194517486
 20
1426.08116410282
 11
381.060194517486
 21
1428.481503866106
 72
     2
 10
381.2589191768429
 20
1428.481503866106
 40
0.1987246593563
 50
180.0
 51
330.0000000000873
 73
     0
 97
       16
330
C0
330
BB
330
168
330
BC
330
169
330
BD
330
C9
330
C8
330
1C5
330
C7
330
C6
330
BE
330
16A
330
BF
330
C1
330
16B
 75
     1
 76
     0
 52
45.0
 41
0.2
 77
     0
 78
     1
 53
45.0
 43
0.0
 44
0.0
 45
-0.1414213562373095
 46
0.1414213562373095
 79
     0
 98
        1
 10
0.0
 20
0.0
  0
ENDSEC
  0
SECTION
  2
OBJECTS
  0
DICTIONARY
  5
C
330
0
100
AcDbDictionary
281
     1
  3
ACAD_GROUP
350
D
  3
ACAD_LAYOUT
350
1A
  3
ACAD_MATERIAL
350
3B
  3
ACAD_MLEADERSTYLE
350
234
  3
ACAD_MLINESTYLE
350
17
  3
ACAD_PLOTSETTINGS
350
19
  3
ACAD_PLOTSTYLENAME
350
E
  3
ACAD_VISUALSTYLE
350
2A
  3
AcDbVariableDictionary
350
232
  0
DICTIONARY
  5
D
102
{ACAD_REACTORS
330
C
102
}
330
C
100
AcDbDictionary
281
     1
  0
DICTIONARY
  5
1A
102
{ACAD_REACTORS
330
C
102
}
330
C
100
AcDbDictionary
281
     1
  3
Layout1
350
1E
  3
Layout2
350
26
  3
Model
350
22
  0
DICTIONARY
  5
3B
102
{ACAD_REACTORS
330
C
102
}
330
C
100
AcDbDictionary
281
     1
  3
ByBlock
350
3D
  3
ByLayer
350
3C
  3
Global
350
3E
  0
DICTIONARY
  5
234
102
{ACAD_REACTORS
330
C
102
}
330
C
100
AcDbDictionary
281
     1
  0
DICTIONARY
  5
17
102
{ACAD_REACTORS
330
C
102
}
330
C
100
AcDbDictionary
281
     1
  3
Standard
350
18
  0
DICTIONARY
  5
19
102
{ACAD_REACTORS
330
C
102
}
330
C
100
AcDbDictionary
281
     1
  0
ACDBDICTIONARYWDFLT
  5
E
102
{ACAD_REACTORS
330
C
102
}
330
C
100
AcDbDictionary
281
     1
  3
Normal
350
F
100
AcDbDictionaryWithDefault
340
F
  0
DICTIONARY
  5
2A
102
{ACAD_REACTORS
330
C
102
}
330
C
100
AcDbDictionary
281
     1
  3
2dWireframe
350
2F
  3
3D Hidden
350
31
  3
3dWireframe
350
30
  3
Basic
350
32
  3
Brighten
350
36
  3
ColorChange
350
3A
  3
Conceptual
350
34
  3
Dim
350
35
  3
Facepattern
350
39
  3
Flat
350
2B
  3
FlatWithEdges
350
2C
  3
Gouraud
350
2D
  3
GouraudWithEdges
350
2E
  3
Linepattern
350
38
  3
Realistic
350
33
  3
Thicken
350
37
  0
DICTIONARY
  5
232
102
{ACAD_REACTORS
330
C
102
}
330
C
100
AcDbDictionary
281
     1
  3
DIMASSOC
350
235
  3
HIDETEXT
350
236
  0
LAYOUT
  5
1E
102
{ACAD_REACTORS
330
1A
102
}
330
1A
100
AcDbPlotSettings
  1

  2
none_device
  4

  6

 40
0.0
 41
0.0
 42
0.0
 43
0.0
 44
0.0
 45
0.0
 46
0.0
 47
0.0
 48
0.0
 49
0.0
140
0.0
141
0.0
142
1.0
143
1.0
 70
   688
 72
     0
 73
     0
 74
     5
  7

 75
    16
147
1.0
148
0.0
149
0.0
100
AcDbLayout
  1
Layout1
 70
     1
 71
     1
 10
0.0
 20
0.0
 11
12.0
 21
9.0
 12
0.0
 22
0.0
 32
0.0
 14
1.00000000000000E+20
 24
1.00000000000000E+20
 34
1.00000000000000E+20
 15
-1.00000000000000E+20
 25
-1.00000000000000E+20
 35
-1.00000000000000E+20
146
0.0
 13
0.0
 23
0.0
 33
0.0
 16
1.0
 26
0.0
 36
0.0
 17
0.0
 27
1.0
 37
0.0
 76
     0
330
1B
  0
LAYOUT
  5
26
102
{ACAD_REACTORS
330
1A
102
}
330
1A
100
AcDbPlotSettings
  1

  2
none_device
  4

  6

 40
0.0
 41
0.0
 42
0.0
 43
0.0
 44
0.0
 45
0.0
 46
0.0
 47
0.0
 48
0.0
 49
0.0
140
0.0
141
0.0
142
1.0
143
1.0
 70
   688
 72
     0
 73
     0
 74
     5
  7

 75
    16
147
1.0
148
0.0
149
0.0
100
AcDbLayout
  1
Layout2
 70
     1
 71
     2
 10
0.0
 20
0.0
 11
0.0
 21
0.0
 12
0.0
 22
0.0
 32
0.0
 14
0.0
 24
0.0
 34
0.0
 15
0.0
 25
0.0
 35
0.0
146
0.0
 13
0.0
 23
0.0
 33
0.0
 16
1.0
 26
0.0
 36
0.0
 17
0.0
 27
1.0
 37
0.0
 76
     0
330
23
  0
LAYOUT
  5
22
102
{ACAD_REACTORS
330
1A
102
}
330
1A
100
AcDbPlotSettings
  1

  2
none_device
  4

  6

 40
0.0
 41
0.0
 42
0.0
 43
0.0
 44
0.0
 45
0.0
 46
0.0
 47
0.0
 48
0.0
 49
0.0
140
0.0
141
0.0
142
1.0
143
1.0
 70
  1712
 72
     0
 73
     0
 74
     0
  7

 75
     0
147
1.0
148
0.0
149
0.0
100
AcDbLayout
  1
Model
 70
     1
 71
     0
 10
0.0
 20
0.0
 11
12.0
 21
9.0
 12
0.0
 22
0.0
 32
0.0
 14
-0.00000000000014
 24
0.0
 34
0.0
 15
1050.000000000001
 25
1485.000000000001
 35
0.0
146
0.0
 13
0.0
 23
0.0
 33
0.0
 16
1.0
 26
0.0
 36
0.0
 17
0.0
 27
1.0
 37
0.0
 76
     0
330
1F
331
29
  0
MATERIAL
  5
3D
102
{ACAD_REACTORS
330
3B
102
}
102
{ACAD_XDICTIONARY
360
259
102
}
330
3B
100
AcDbMaterial
  1
ByBlock
  0
MATERIAL
  5
3C
102
{ACAD_REACTORS
330
3B
102
}
102
{ACAD_XDICTIONARY
360
257
102
}
330
3B
100
AcDbMaterial
  1
ByLayer
  0
MATERIAL
  5
3E
102
{ACAD_REACTORS
330
3B
102
}
102
{ACAD_XDICTIONARY
360
25B
102
}
330
3B
100
AcDbMaterial
  1
Global
  0
MLINESTYLE
  5
18
102
{ACAD_REACTORS
330
17
102
}
330
17
100
AcDbMlineStyle
  2
Standard
 70
     0
  3

 62
   256
 51
90.0
 52
90.0
 71
     2
 49
0.5
 62
   256
  6
BYLAYER
 49
-0.5
 62
   256
  6
BYLAYER
  0
ACDBPLACEHOLDER
  5
F
102
{ACAD_REACTORS
330
E
102
}
330
E
  0
VISUALSTYLE
  5
2F
102
{ACAD_REACTORS
330
2A
102
}
102
{ACAD_XDICTIONARY
360
23F
102
}
330
2A
100
AcDbVisualStyle
  2
2dWireframe
 70
     4
 71
     0
 72
     2
 73
     0
 90
        0
 40
-0.6
 41
-30.0
 62
     5
 63
     7
 74
     1
 91
        4
 64
     7
 65
   257
 75
     1
175
     1
 42
1.0
 92
        0
 66
   257
 43
1.0
 76
     1
 77
     6
 78
     2
 67
     7
 79
     5
170
     0
171
     0
290
     0
174
     0
 93
        1
 44
0.0
173
     0
291
     0
 45
0.0
1001
ACAD
1000
AcDbSavedByObjectVersion
1070
     0
  0
VISUALSTYLE
  5
31
102
{ACAD_REACTORS
330
2A
102
}
102
{ACAD_XDICTIONARY
360
243
102
}
330
2A
100
AcDbVisualStyle
  2
3D Hidden
 70
     6
 71
     1
 72
     2
 73
     2
 90
        0
 40
-0.6
 41
-30.0
 62
     5
 63
     7
 74
     2
 91
        2
 64
     7
 65
   257
 75
     2
175
     1
 42
40.0
 92
        0
 66
   257
 43
1.0
 76
     1
 77
     6
 78
     2
 67
     7
 79
     3
170
     0
171
     0
290
     0
174
     0
 93
        1
 44
0.0
173
     0
291
     0
 45
0.0
1001
ACAD
1000
AcDbSavedByObjectVersion
1070
     0
  0
VISUALSTYLE
  5
30
102
{ACAD_REACTORS
330
2A
102
}
102
{ACAD_XDICTIONARY
360
241
102
}
330
2A
100
AcDbVisualStyle
  2
3dWireframe
 70
     5
 71
     0
 72
     2
 73
     0
 90
        0
 40
-0.6
 41
-30.0
 62
     5
 63
     7
 74
     1
 91
        4
 64
     7
 65
   257
 75
     1
175
     1
 42
1.0
 92
        0
 66
   257
 43
1.0
 76
     1
 77
     6
 78
     2
 67
     7
 79
     5
170
     0
171
     0
290
     0
174
     0
 93
        1
 44
0.0
173
     0
291
     0
 45
0.0
1001
ACAD
1000
AcDbSavedByObjectVersion
1070
     0
  0
VISUALSTYLE
  5
32
102
{ACAD_REACTORS
330
2A
102
}
102
{ACAD_XDICTIONARY
360
245
102
}
330
2A
100
AcDbVisualStyle
  2
Basic
 70
     7
 71
     1
 72
     0
 73
     1
 90
        0
 40
-0.6
 41
-30.0
 62
     5
 63
     7
 74
     0
 91
        4
 64
     7
 65
   257
 75
     1
175
     1
 42
1.0
 92
        8
 66
     7
 43
1.0
 76
     1
 77
     6
 78
     2
 67
     7
 79
     5
170
     0
171
     0
290
     0
174
     0
 93
        1
 44
0.0
173
     0
291
     1
 45
0.0
1001
ACAD
1000
AcDbSavedByObjectVersion
1070
     0
  0
VISUALSTYLE
  5
36
102
{ACAD_REACTORS
330
2A
102
}
102
{ACAD_XDICTIONARY
360
24D
102
}
330
2A
100
AcDbVisualStyle
  2
Brighten
 70
    12
 71
     2
 72
     2
 73
     0
 90
        0
 40
-0.6
 41
-30.0
 62
     5
 63
     7
 74
     1
 91
        4
 64
     7
 65
   257
 75
     1
175
     1
 42
1.0
 92
        8
 66
     7
 43
1.0
 76
     1
 77
     6
 78
     2
 67
     7
 79
     5
170
     0
171
     0
290
     0
174
     0
 93
        1
 44
50.0
173
     0
291
     1
 45
0.0
1001
ACAD
1000
AcDbSavedByObjectVersion
1070
     0
  0
VISUALSTYLE
  5
3A
102
{ACAD_REACTORS
330
2A
102
}
102
{ACAD_XDICTIONARY
360
255
102
}
330
2A
100
AcDbVisualStyle
  2
ColorChange
 70
    16
 71
     2
 72
     2
 73
     3
 90
        0
 40
-0.6
 41
-30.0
 62
     5
 63
     8
 74
     1
 91
        4
 64
     7
 65
   257
 75
     1
175
     1
 42
1.0
 92
        8
 66
     8
 43
1.0
 76
     1
 77
     6
 78
     2
 67
     7
 79
     5
170
     0
171
     0
290
     0
174
     0
 93
        1
 44
0.0
173
     0
291
     1
 45
0.0
1001
ACAD
1000
AcDbSavedByObjectVersion
1070
     0
  0
VISUALSTYLE
  5
34
102
{ACAD_REACTORS
330
2A
102
}
102
{ACAD_XDICTIONARY
360
249
102
}
330
2A
100
AcDbVisualStyle
  2
Conceptual
 70
     9
 71
     3
 72
     2
 73
     0
 90
        0
 40
-0.6
 41
-30.0
 62
     5
 63
     7
 74
     2
 91
        2
 64
     7
 65
   257
 75
     1
175
     1
 42
40.0
 92
        8
 66
     7
 43
1.0
 76
     1
 77
     6
 78
     2
 67
     7
 79
     3
170
     0
171
     0
290
     0
174
     0
 93
        1
 44
0.0
173
     0
291
     0
 45
0.0
1001
ACAD
1000
AcDbSavedByObjectVersion
1070
     0
  0
VISUALSTYLE
  5
35
102
{ACAD_REACTORS
330
2A
102
}
102
{ACAD_XDICTIONARY
360
24B
102
}
330
2A
100
AcDbVisualStyle
  2
Dim
 70
    11
 71
     2
 72
     2
 73
     0
 90
        0
 40
-0.6
 41
-30.0
 62
     5
 63
     7
 74
     1
 91
        4
 64
     7
 65
   257
 75
     1
175
     1
 42
1.0
 92
        8
 66
     7
 43
1.0
 76
     1
 77
     6
 78
     2
 67
     7
 79
     5
170
     0
171
     0
290
     0
174
     0
 93
        1
 44
-50.0
173
     0
291
     1
 45
0.0
1001
ACAD
1000
AcDbSavedByObjectVersion
1070
     0
  0
VISUALSTYLE
  5
39
102
{ACAD_REACTORS
330
2A
102
}
102
{ACAD_XDICTIONARY
360
253
102
}
330
2A
100
AcDbVisualStyle
  2
Facepattern
 70
    15
 71
     2
 72
     2
 73
     0
 90
        0
 40
-0.6
 41
-30.0
 62
     5
 63
     7
 74
     1
 91
        4
 64
     7
 65
   257
 75
     1
175
     1
 42
1.0
 92
        8
 66
     7
 43
1.0
 76
     1
 77
     6
 78
     2
 67
     7
 79
     5
170
     0
171
     0
290
     0
174
     0
 93
        1
 44
0.0
173
     0
291
     1
 45
0.0
1001
ACAD
1000
AcDbSavedByObjectVersion
1070
     0
  0
VISUALSTYLE
  5
2B
102
{ACAD_REACTORS
330
2A
102
}
102
{ACAD_XDICTIONARY
360
237
102
}
330
2A
100
AcDbVisualStyle
  2
Flat
 70
     0
 71
     2
 72
     1
 73
     1
 90
        2
 40
-0.6
 41
30.0
 62
     5
 63
     7
 74
     0
 91
        4
 64
     7
 65
   257
 75
     1
175
     1
 42
1.0
 92
        8
 66
     7
 43
1.0
 76
     1
 77
     6
 78
     2
 67
     7
 79
     5
170
     0
171
     0
290
     0
174
     0
 93
       13
 44
0.0
173
     0
291
     1
 45
0.0
1001
ACAD
1000
AcDbSavedByObjectVersion
1070
     0
  0
VISUALSTYLE
  5
2C
102
{ACAD_REACTORS
330
2A
102
}
102
{ACAD_XDICTIONARY
360
239
102
}
330
2A
100
AcDbVisualStyle
  2
FlatWithEdges
 70
     1
 71
     2
 72
     1
 73
     1
 90
        2
 40
-0.6
 41
30.0
 62
     5
 63
     7
 74
     1
 91
        4
 64
     7
 65
   257
 75
     1
175
     1
 42
1.0
 92
        0
 66
   257
 43
1.0
 76
     1
 77
     6
 78
     2
 67
     7
 79
     5
170
     0
171
     0
290
     0
174
     0
 93
       13
 44
0.0
173
     0
291
     1
 45
0.0
1001
ACAD
1000
AcDbSavedByObjectVersion
1070
     0
  0
VISUALSTYLE
  5
2D
102
{ACAD_REACTORS
330
2A
102
}
102
{ACAD_XDICTIONARY
360
23B
102
}
330
2A
100
AcDbVisualStyle
  2
Gouraud
 70
     2
 71
     2
 72
     2
 73
     1
 90
        2
 40
-0.6
 41
30.0
 62
     5
 63
     7
 74
     0
 91
        4
 64
     7
 65
   257
 75
     1
175
     1
 42
1.0
 92
        0
 66
     7
 43
1.0
 76
     1
 77
     6
 78
     2
 67
     7
 79
     5
170
     0
171
     0
290
     0
174
     0
 93
       13
 44
0.0
173
     0
291
     1
 45
0.0
1001
ACAD
1000
AcDbSavedByObjectVersion
1070
     0
  0
VISUALSTYLE
  5
2E
102
{ACAD_REACTORS
330
2A
102
}
102
{ACAD_XDICTIONARY
360
23D
102
}
330
2A
100
AcDbVisualStyle
  2
GouraudWithEdges
 70
     3
 71
     2
 72
     2
 73
     1
 90
        2
 40
-0.6
 41
30.0
 62
     5
 63
     7
 74
     1
 91
        4
 64
     7
 65
   257
 75
     1
175
     1
 42
1.0
 92
        0
 66
   257
 43
1.0
 76
     1
 77
     6
 78
     2
 67
     7
 79
     5
170
     0
171
     0
290
     0
174
     0
 93
       13
 44
0.0
173
     0
291
     1
 45
0.0
1001
ACAD
1000
AcDbSavedByObjectVersion
1070
     0
  0
VISUALSTYLE
  5
38
102
{ACAD_REACTORS
330
2A
102
}
102
{ACAD_XDICTIONARY
360
251
102
}
330
2A
100
AcDbVisualStyle
  2
Linepattern
 70
    14
 71
     2
 72
     2
 73
     0
 90
        0
 40
-0.6
 41
-30.0
 62
     5
 63
     7
 74
     1
 91
        4
 64
     7
 65
   257
 75
     7
175
     7
 42
1.0
 92
        8
 66
     7
 43
1.0
 76
     1
 77
     6
 78
     2
 67
     7
 79
     5
170
     0
171
     0
290
     0
174
     0
 93
        1
 44
0.0
173
     0
291
     1
 45
0.0
1001
ACAD
1000
AcDbSavedByObjectVersion
1070
     0
  0
VISUALSTYLE
  5
33
102
{ACAD_REACTORS
330
2A
102
}
102
{ACAD_XDICTIONARY
360
247
102
}
330
2A
100
AcDbVisualStyle
  2
Realistic
 70
     8
 71
     2
 72
     2
 73
     0
 90
        0
 40
-0.6
 41
-30.0
 62
     5
 63
     7
 74
     1
 91
        0
 64
     7
 65
   257
 75
     1
175
     1
 42
1.0
 92
        8
 66
     8
 43
1.0
 76
     1
 77
     6
 78
     2
 67
     7
 79
     5
170
     0
171
     0
290
     0
174
     0
 93
       13
 44
0.0
173
     0
291
     0
 45
0.0
1001
ACAD
1000
AcDbSavedByObjectVersion
1070
     0
  0
VISUALSTYLE
  5
37
102
{ACAD_REACTORS
330
2A
102
}
102
{ACAD_XDICTIONARY
360
24F
102
}
330
2A
100
AcDbVisualStyle
  2
Thicken
 70
    13
 71
     2
 72
     2
 73
     0
 90
        0
 40
-0.6
 41
-30.0
 62
     5
 63
     7
 74
     1
 91
        4
 64
     7
 65
   257
 75
     1
175
     1
 42
1.0
 92
       12
 66
     7
 43
1.0
 76
     1
 77
     6
 78
     2
 67
     7
 79
     5
170
     0
171
     0
290
     0
174
     0
 93
        1
 44
0.0
173
     0
291
     1
 45
0.0
1001
ACAD
1000
AcDbSavedByObjectVersion
1070
     0
  0
DICTIONARYVAR
  5
235
102
{ACAD_REACTORS
330
232
102
}
330
232
100
DictionaryVariables
280
     0
  1
2
  0
DICTIONARYVAR
  5
236
102
{ACAD_REACTORS
330
232
102
}
330
232
100
DictionaryVariables
280
     0
  1
1
  0
DICTIONARY
  5
259
330
3D
100
AcDbDictionary
280
     1
281
     1
  3
ACAD_XREC_ROUNDTRIP
360
25A
  0
DICTIONARY
  5
257
330
3C
100
AcDbDictionary
280
     1
281
     1
  3
ACAD_XREC_ROUNDTRIP
360
258
  0
DICTIONARY
  5
25B
330
3E
100
AcDbDictionary
280
     1
281
     1
  3
ACAD_XREC_ROUNDTRIP
360
25C
  0
DICTIONARY
  5
23F
330
2F
100
AcDbDictionary
280
     1
281
     1
  3
ACAD_XREC_ROUNDTRIP
360
240
  0
DICTIONARY
  5
243
330
31
100
AcDbDictionary
280
     1
281
     1
  3
ACAD_XREC_ROUNDTRIP
360
244
  0
DICTIONARY
  5
241
330
30
100
AcDbDictionary
280
     1
281
     1
  3
ACAD_XREC_ROUNDTRIP
360
242
  0
DICTIONARY
  5
245
330
32
100
AcDbDictionary
280
     1
281
     1
  3
ACAD_XREC_ROUNDTRIP
360
246
  0
DICTIONARY
  5
24D
330
36
100
AcDbDictionary
280
     1
281
     1
  3
ACAD_XREC_ROUNDTRIP
360
24E
  0
DICTIONARY
  5
255
330
3A
100
AcDbDictionary
280
     1
281
     1
  3
ACAD_XREC_ROUNDTRIP
360
256
  0
DICTIONARY
  5
249
330
34
100
AcDbDictionary
280
     1
281
     1
  3
ACAD_XREC_ROUNDTRIP
360
24A
  0
DICTIONARY
  5
24B
330
35
100
AcDbDictionary
280
     1
281
     1
  3
ACAD_XREC_ROUNDTRIP
360
24C
  0
DICTIONARY
  5
253
330
39
100
AcDbDictionary
280
     1
281
     1
  3
ACAD_XREC_ROUNDTRIP
360
254
  0
DICTIONARY
  5
237
330
2B
100
AcDbDictionary
280
     1
281
     1
  3
ACAD_XREC_ROUNDTRIP
360
238
  0
DICTIONARY
  5
239
330
2C
100
AcDbDictionary
280
     1
281
     1
  3
ACAD_XREC_ROUNDTRIP
360
23A
  0
DICTIONARY
  5
23B
330
2D
100
AcDbDictionary
280
     1
281
     1
  3
ACAD_XREC_ROUNDTRIP
360
23C
  0
DICTIONARY
  5
23D
330
2E
100
AcDbDictionary
280
     1
281
     1
  3
ACAD_XREC_ROUNDTRIP
360
23E
  0
DICTIONARY
  5
251
330
38
100
AcDbDictionary
280
     1
281
     1
  3
ACAD_XREC_ROUNDTRIP
360
252
  0
DICTIONARY
  5
247
330
33
100
AcDbDictionary
280
     1
281
     1
  3
ACAD_XREC_ROUNDTRIP
360
248
  0
DICTIONARY
  5
24F
330
37
100
AcDbDictionary
280
     1
281
     1
  3
ACAD_XREC_ROUNDTRIP
360
250
  0
XRECORD
  5
25A
102
{ACAD_REACTORS
330
259
102
}
330
259
100
AcDbXrecord
280
     1
102
MATERIAL
148
0.0
149
0.0
149
0.0
 93
        0
 94
      127
282
     0
 72
     1
 77
     1
171
     1
175
     1
179
     1
273
     0
  0
XRECORD
  5
258
102
{ACAD_REACTORS
330
257
102
}
330
257
100
AcDbXrecord
280
     1
102
MATERIAL
148
0.0
149
0.0
149
0.0
 93
        0
 94
      127
282
     0
 72
     1
 77
     1
171
     1
175
     1
179
     1
273
     0
  0
XRECORD
  5
25C
102
{ACAD_REACTORS
330
25B
102
}
330
25B
100
AcDbXrecord
280
     1
102
MATERIAL
148
0.0
149
0.0
149
0.0
 93
        0
 94
      127
282
     0
 72
     1
 77
     1
171
     1
175
     1
179
     1
273
     0
  0
XRECORD
  5
240
102
{ACAD_REACTORS
330
23F
102
}
330
23F
100
AcDbXrecord
280
     1
102
RTVSPropertyOp0
 70
     1
102
RTVSPropertyOp1
 70
     1
102
RTVSPropertyOp2
 70
     1
102
RTVSPropertyOp3
 70
     1
102
RTVSPropertyOp4
 70
     1
102
RTVSPropertyOp5
 70
     1
102
RTVSPropertyOp6
 70
     1
102
RTVSPropertyOp7
 70
     1
102
RTVSPropertyOp8
 70
     1
102
RTVSPropertyOp9
 70
     1
102
RTVSPropertyOp10
 70
     1
102
RTVSPropertyOp11
 70
     1
102
RTVSPropertyOp12
 70
     1
102
RTVSPropertyOp13
 70
     1
102
RTVSPropertyOp14
 70
     1
102
RTVSPropertyOp15
 70
     1
102
RTVSPropertyOp16
 70
     1
102
RTVSPropertyOp17
 70
     1
102
RTVSPropertyOp18
 70
     1
102
RTVSPropertyOp19
 70
     1
102
RTVSPropertyOp20
 70
     1
102
RTVSPropertyOp21
 70
     1
102
RTVSPropertyOp22
 70
     1
102
RTVSPropertyOp23
 70
     1
102
RTVSPropertyOp24
 70
     1
102
RTVSPropertyOp25
 70
     1
102
RTVSPropertyOp26
 70
     1
102
RTVSPropertyOp27
 70
     1
102
RTVSPropertyOp28
 70
     1
102
RTVSPropertyOp29
 70
     1
102
RTVSPropertyOp30
 70
     1
102
RTVSPropertyOp31
 70
     1
102
RTVSPropertyOp32
 70
     1
  0
XRECORD
  5
244
102
{ACAD_REACTORS
330
243
102
}
330
243
100
AcDbXrecord
280
     1
102
RTVSPropertyOp0
 70
     1
102
RTVSPropertyOp1
 70
     1
102
RTVSPropertyOp2
 70
     1
102
RTVSPropertyOp3
 70
     1
102
RTVSPropertyOp4
 70
     1
102
RTVSPropertyOp5
 70
     1
102
RTVSPropertyOp6
 70
     1
102
RTVSPropertyOp7
 70
     1
102
RTVSPropertyOp8
 70
     1
102
RTVSPropertyOp9
 70
     1
102
RTVSPropertyOp10
 70
     1
102
RTVSPropertyOp11
 70
     1
102
RTVSPropertyOp12
 70
     1
102
RTVSPropertyOp13
 70
     1
102
RTVSPropertyOp14
 70
     1
102
RTVSPropertyOp15
 70
     1
102
RTVSPropertyOp16
 70
     1
102
RTVSPropertyOp17
 70
     1
102
RTVSPropertyOp18
 70
     1
102
RTVSPropertyOp19
 70
     1
102
RTVSPropertyOp20
 70
     1
102
RTVSPropertyOp21
 70
     1
102
RTVSPropertyOp22
 70
     1
102
RTVSPropertyOp23
 70
     1
102
RTVSPropertyOp24
 70
     1
102
RTVSPropertyOp25
 70
     1
102
RTVSPropertyOp26
 70
     1
102
RTVSPropertyOp27
 70
     1
102
RTVSPropertyOp28
 70
     1
102
RTVSPropertyOp29
 70
     1
102
RTVSPropertyOp30
 70
     1
102
RTVSPropertyOp31
 70
     1
102
RTVSPropertyOp32
 70
     1
  0
XRECORD
  5
242
102
{ACAD_REACTORS
330
241
102
}
330
241
100
AcDbXrecord
280
     1
102
RTVSPropertyOp0
 70
     1
102
RTVSPropertyOp1
 70
     1
102
RTVSPropertyOp2
 70
     1
102
RTVSPropertyOp3
 70
     1
102
RTVSPropertyOp4
 70
     1
102
RTVSPropertyOp5
 70
     1
102
RTVSPropertyOp6
 70
     1
102
RTVSPropertyOp7
 70
     1
102
RTVSPropertyOp8
 70
     1
102
RTVSPropertyOp9
 70
     1
102
RTVSPropertyOp10
 70
     1
102
RTVSPropertyOp11
 70
     1
102
RTVSPropertyOp12
 70
     1
102
RTVSPropertyOp13
 70
     1
102
RTVSPropertyOp14
 70
     1
102
RTVSPropertyOp15
 70
     1
102
RTVSPropertyOp16
 70
     1
102
RTVSPropertyOp17
 70
     1
102
RTVSPropertyOp18
 70
     1
102
RTVSPropertyOp19
 70
     1
102
RTVSPropertyOp20
 70
     1
102
RTVSPropertyOp21
 70
     1
102
RTVSPropertyOp22
 70
     1
102
RTVSPropertyOp23
 70
     1
102
RTVSPropertyOp24
 70
     1
102
RTVSPropertyOp25
 70
     1
102
RTVSPropertyOp26
 70
     1
102
RTVSPropertyOp27
 70
     1
102
RTVSPropertyOp28
 70
     1
102
RTVSPropertyOp29
 70
     1
102
RTVSPropertyOp30
 70
     1
102
RTVSPropertyOp31
 70
     1
102
RTVSPropertyOp32
 70
     1
  0
XRECORD
  5
246
102
{ACAD_REACTORS
330
245
102
}
330
245
100
AcDbXrecord
280
     1
102
RTVSPropertyOp0
 70
     1
102
RTVSPropertyOp1
 70
     1
102
RTVSPropertyOp2
 70
     1
102
RTVSPropertyOp3
 70
     1
102
RTVSPropertyOp4
 70
     1
102
RTVSPropertyOp5
 70
     1
102
RTVSPropertyOp6
 70
     1
102
RTVSPropertyOp7
 70
     1
102
RTVSPropertyOp8
 70
     1
102
RTVSPropertyOp9
 70
     1
102
RTVSPropertyOp10
 70
     1
102
RTVSPropertyOp11
 70
     1
102
RTVSPropertyOp12
 70
     1
102
RTVSPropertyOp13
 70
     1
102
RTVSPropertyOp14
 70
     1
102
RTVSPropertyOp15
 70
     1
102
RTVSPropertyOp16
 70
     1
102
RTVSPropertyOp17
 70
     1
102
RTVSPropertyOp18
 70
     1
102
RTVSPropertyOp19
 70
     1
102
RTVSPropertyOp20
 70
     1
102
RTVSPropertyOp21
 70
     1
102
RTVSPropertyOp22
 70
     1
102
RTVSPropertyOp23
 70
     1
102
RTVSPropertyOp24
 70
     1
102
RTVSPropertyOp25
 70
     1
102
RTVSPropertyOp26
 70
     1
102
RTVSPropertyOp27
 70
     1
102
RTVSPropertyOp28
 70
     1
102
RTVSPropertyOp29
 70
     1
102
RTVSPropertyOp30
 70
     1
102
RTVSPropertyOp31
 70
     1
102
RTVSPropertyOp32
 70
     1
  0
XRECORD
  5
24E
102
{ACAD_REACTORS
330
24D
102
}
330
24D
100
AcDbXrecord
280
     1
102
RTVSPropertyOp0
 70
     1
102
RTVSPropertyOp1
 70
     1
102
RTVSPropertyOp2
 70
     1
102
RTVSPropertyOp3
 70
     1
102
RTVSPropertyOp4
 70
     1
102
RTVSPropertyOp5
 70
     1
102
RTVSPropertyOp6
 70
     1
102
RTVSPropertyOp7
 70
     1
102
RTVSPropertyOp8
 70
     1
102
RTVSPropertyOp9
 70
     1
102
RTVSPropertyOp10
 70
     1
102
RTVSPropertyOp11
 70
     1
102
RTVSPropertyOp12
 70
     1
102
RTVSPropertyOp13
 70
     1
102
RTVSPropertyOp14
 70
     1
102
RTVSPropertyOp15
 70
     1
102
RTVSPropertyOp16
 70
     1
102
RTVSPropertyOp17
 70
     1
102
RTVSPropertyOp18
 70
     1
102
RTVSPropertyOp19
 70
     1
102
RTVSPropertyOp20
 70
     1
102
RTVSPropertyOp21
 70
     1
102
RTVSPropertyOp22
 70
     1
102
RTVSPropertyOp23
 70
     1
102
RTVSPropertyOp24
 70
     1
102
RTVSPropertyOp25
 70
     1
102
RTVSPropertyOp26
 70
     1
102
RTVSPropertyOp27
 70
     1
102
RTVSPropertyOp28
 70
     1
102
RTVSPropertyOp29
 70
     1
102
RTVSPropertyOp30
 70
     1
102
RTVSPropertyOp31
 70
     1
102
RTVSPropertyOp32
 70
     1
  0
XRECORD
  5
256
102
{ACAD_REACTORS
330
255
102
}
330
255
100
AcDbXrecord
280
     1
102
RTVSPropertyOp0
 70
     1
102
RTVSPropertyOp1
 70
     1
102
RTVSPropertyOp2
 70
     1
102
RTVSPropertyOp3
 70
     1
102
RTVSPropertyOp4
 70
     1
102
RTVSPropertyOp5
 70
     1
102
RTVSPropertyOp6
 70
     1
102
RTVSPropertyOp7
 70
     1
102
RTVSPropertyOp8
 70
     1
102
RTVSPropertyOp9
 70
     1
102
RTVSPropertyOp10
 70
     1
102
RTVSPropertyOp11
 70
     1
102
RTVSPropertyOp12
 70
     1
102
RTVSPropertyOp13
 70
     1
102
RTVSPropertyOp14
 70
     1
102
RTVSPropertyOp15
 70
     1
102
RTVSPropertyOp16
 70
     1
102
RTVSPropertyOp17
 70
     1
102
RTVSPropertyOp18
 70
     1
102
RTVSPropertyOp19
 70
     1
102
RTVSPropertyOp20
 70
     1
102
RTVSPropertyOp21
 70
     1
102
RTVSPropertyOp22
 70
     1
102
RTVSPropertyOp23
 70
     1
102
RTVSPropertyOp24
 70
     1
102
RTVSPropertyOp25
 70
     1
102
RTVSPropertyOp26
 70
     1
102
RTVSPropertyOp27
 70
     1
102
RTVSPropertyOp28
 70
     1
102
RTVSPropertyOp29
 70
     1
102
RTVSPropertyOp30
 70
     1
102
RTVSPropertyOp31
 70
     1
102
RTVSPropertyOp32
 70
     1
  0
XRECORD
  5
24A
102
{ACAD_REACTORS
330
249
102
}
330
249
100
AcDbXrecord
280
     1
102
RTVSPropertyOp0
 70
     1
102
RTVSPropertyOp1
 70
     1
102
RTVSPropertyOp2
 70
     1
102
RTVSPropertyOp3
 70
     1
102
RTVSPropertyOp4
 70
     1
102
RTVSPropertyOp5
 70
     1
102
RTVSPropertyOp6
 70
     1
102
RTVSPropertyOp7
 70
     1
102
RTVSPropertyOp8
 70
     1
102
RTVSPropertyOp9
 70
     1
102
RTVSPropertyOp10
 70
     1
102
RTVSPropertyOp11
 70
     1
102
RTVSPropertyOp12
 70
     1
102
RTVSPropertyOp13
 70
     1
102
RTVSPropertyOp14
 70
     1
102
RTVSPropertyOp15
 70
     1
102
RTVSPropertyOp16
 70
     1
102
RTVSPropertyOp17
 70
     1
102
RTVSPropertyOp18
 70
     1
102
RTVSPropertyOp19
 70
     1
102
RTVSPropertyOp20
 70
     1
102
RTVSPropertyOp21
 70
     1
102
RTVSPropertyOp22
 70
     1
102
RTVSPropertyOp23
 70
     1
102
RTVSPropertyOp24
 70
     1
102
RTVSPropertyOp25
 70
     1
102
RTVSPropertyOp26
 70
     1
102
RTVSPropertyOp27
 70
     1
102
RTVSPropertyOp28
 70
     1
102
RTVSPropertyOp29
 70
     1
102
RTVSPropertyOp30
 70
     1
102
RTVSPropertyOp31
 70
     1
102
RTVSPropertyOp32
 70
     1
  0
XRECORD
  5
24C
102
{ACAD_REACTORS
330
24B
102
}
330
24B
100
AcDbXrecord
280
     1
102
RTVSPropertyOp0
 70
     1
102
RTVSPropertyOp1
 70
     1
102
RTVSPropertyOp2
 70
     1
102
RTVSPropertyOp3
 70
     1
102
RTVSPropertyOp4
 70
     1
102
RTVSPropertyOp5
 70
     1
102
RTVSPropertyOp6
 70
     1
102
RTVSPropertyOp7
 70
     1
102
RTVSPropertyOp8
 70
     1
102
RTVSPropertyOp9
 70
     1
102
RTVSPropertyOp10
 70
     1
102
RTVSPropertyOp11
 70
     1
102
RTVSPropertyOp12
 70
     1
102
RTVSPropertyOp13
 70
     1
102
RTVSPropertyOp14
 70
     1
102
RTVSPropertyOp15
 70
     1
102
RTVSPropertyOp16
 70
     1
102
RTVSPropertyOp17
 70
     1
102
RTVSPropertyOp18
 70
     1
102
RTVSPropertyOp19
 70
     1
102
RTVSPropertyOp20
 70
     1
102
RTVSPropertyOp21
 70
     1
102
RTVSPropertyOp22
 70
     1
102
RTVSPropertyOp23
 70
     1
102
RTVSPropertyOp24
 70
     1
102
RTVSPropertyOp25
 70
     1
102
RTVSPropertyOp26
 70
     1
102
RTVSPropertyOp27
 70
     1
102
RTVSPropertyOp28
 70
     1
102
RTVSPropertyOp29
 70
     1
102
RTVSPropertyOp30
 70
     1
102
RTVSPropertyOp31
 70
     1
102
RTVSPropertyOp32
 70
     1
  0
XRECORD
  5
254
102
{ACAD_REACTORS
330
253
102
}
330
253
100
AcDbXrecord
280
     1
102
RTVSPropertyOp0
 70
     1
102
RTVSPropertyOp1
 70
     1
102
RTVSPropertyOp2
 70
     1
102
RTVSPropertyOp3
 70
     1
102
RTVSPropertyOp4
 70
     1
102
RTVSPropertyOp5
 70
     1
102
RTVSPropertyOp6
 70
     1
102
RTVSPropertyOp7
 70
     1
102
RTVSPropertyOp8
 70
     1
102
RTVSPropertyOp9
 70
     1
102
RTVSPropertyOp10
 70
     1
102
RTVSPropertyOp11
 70
     1
102
RTVSPropertyOp12
 70
     1
102
RTVSPropertyOp13
 70
     1
102
RTVSPropertyOp14
 70
     1
102
RTVSPropertyOp15
 70
     1
102
RTVSPropertyOp16
 70
     1
102
RTVSPropertyOp17
 70
     1
102
RTVSPropertyOp18
 70
     1
102
RTVSPropertyOp19
 70
     1
102
RTVSPropertyOp20
 70
     1
102
RTVSPropertyOp21
 70
     1
102
RTVSPropertyOp22
 70
     1
102
RTVSPropertyOp23
 70
     1
102
RTVSPropertyOp24
 70
     1
102
RTVSPropertyOp25
 70
     1
102
RTVSPropertyOp26
 70
     1
102
RTVSPropertyOp27
 70
     1
102
RTVSPropertyOp28
 70
     1
102
RTVSPropertyOp29
 70
     1
102
RTVSPropertyOp30
 70
     1
102
RTVSPropertyOp31
 70
     1
102
RTVSPropertyOp32
 70
     1
  0
XRECORD
  5
238
102
{ACAD_REACTORS
330
237
102
}
330
237
100
AcDbXrecord
280
     1
102
RTVSPropertyOp0
 70
     1
102
RTVSPropertyOp1
 70
     1
102
RTVSPropertyOp2
 70
     1
102
RTVSPropertyOp3
 70
     1
102
RTVSPropertyOp4
 70
     1
102
RTVSPropertyOp5
 70
     1
102
RTVSPropertyOp6
 70
     1
102
RTVSPropertyOp7
 70
     1
102
RTVSPropertyOp8
 70
     1
102
RTVSPropertyOp9
 70
     1
102
RTVSPropertyOp10
 70
     1
102
RTVSPropertyOp11
 70
     1
102
RTVSPropertyOp12
 70
     1
102
RTVSPropertyOp13
 70
     1
102
RTVSPropertyOp14
 70
     1
102
RTVSPropertyOp15
 70
     1
102
RTVSPropertyOp16
 70
     1
102
RTVSPropertyOp17
 70
     1
102
RTVSPropertyOp18
 70
     1
102
RTVSPropertyOp19
 70
     1
102
RTVSPropertyOp20
 70
     1
102
RTVSPropertyOp21
 70
     1
102
RTVSPropertyOp22
 70
     1
102
RTVSPropertyOp23
 70
     1
102
RTVSPropertyOp24
 70
     1
102
RTVSPropertyOp25
 70
     1
102
RTVSPropertyOp26
 70
     1
102
RTVSPropertyOp27
 70
     1
102
RTVSPropertyOp28
 70
     1
102
RTVSPropertyOp29
 70
     1
102
RTVSPropertyOp30
 70
     1
102
RTVSPropertyOp31
 70
     1
102
RTVSPropertyOp32
 70
     1
  0
XRECORD
  5
23A
102
{ACAD_REACTORS
330
239
102
}
330
239
100
AcDbXrecord
280
     1
102
RTVSPropertyOp0
 70
     1
102
RTVSPropertyOp1
 70
     1
102
RTVSPropertyOp2
 70
     1
102
RTVSPropertyOp3
 70
     1
102
RTVSPropertyOp4
 70
     1
102
RTVSPropertyOp5
 70
     1
102
RTVSPropertyOp6
 70
     1
102
RTVSPropertyOp7
 70
     1
102
RTVSPropertyOp8
 70
     1
102
RTVSPropertyOp9
 70
     1
102
RTVSPropertyOp10
 70
     1
102
RTVSPropertyOp11
 70
     1
102
RTVSPropertyOp12
 70
     1
102
RTVSPropertyOp13
 70
     1
102
RTVSPropertyOp14
 70
     1
102
RTVSPropertyOp15
 70
     1
102
RTVSPropertyOp16
 70
     1
102
RTVSPropertyOp17
 70
     1
102
RTVSPropertyOp18
 70
     1
102
RTVSPropertyOp19
 70
     1
102
RTVSPropertyOp20
 70
     1
102
RTVSPropertyOp21
 70
     1
102
RTVSPropertyOp22
 70
     1
102
RTVSPropertyOp23
 70
     1
102
RTVSPropertyOp24
 70
     1
102
RTVSPropertyOp25
 70
     1
102
RTVSPropertyOp26
 70
     1
102
RTVSPropertyOp27
 70
     1
102
RTVSPropertyOp28
 70
     1
102
RTVSPropertyOp29
 70
     1
102
RTVSPropertyOp30
 70
     1
102
RTVSPropertyOp31
 70
     1
102
RTVSPropertyOp32
 70
     1
  0
XRECORD
  5
23C
102
{ACAD_REACTORS
330
23B
102
}
330
23B
100
AcDbXrecord
280
     1
102
RTVSPropertyOp0
 70
     1
102
RTVSPropertyOp1
 70
     1
102
RTVSPropertyOp2
 70
     1
102
RTVSPropertyOp3
 70
     1
102
RTVSPropertyOp4
 70
     1
102
RTVSPropertyOp5
 70
     1
102
RTVSPropertyOp6
 70
     1
102
RTVSPropertyOp7
 70
     1
102
RTVSPropertyOp8
 70
     1
102
RTVSPropertyOp9
 70
     1
102
RTVSPropertyOp10
 70
     1
102
RTVSPropertyOp11
 70
     1
102
RTVSPropertyOp12
 70
     1
102
RTVSPropertyOp13
 70
     1
102
RTVSPropertyOp14
 70
     1
102
RTVSPropertyOp15
 70
     1
102
RTVSPropertyOp16
 70
     1
102
RTVSPropertyOp17
 70
     1
102
RTVSPropertyOp18
 70
     1
102
RTVSPropertyOp19
 70
     1
102
RTVSPropertyOp20
 70
     1
102
RTVSPropertyOp21
 70
     1
102
RTVSPropertyOp22
 70
     1
102
RTVSPropertyOp23
 70
     1
102
RTVSPropertyOp24
 70
     1
102
RTVSPropertyOp25
 70
     1
102
RTVSPropertyOp26
 70
     1
102
RTVSPropertyOp27
 70
     1
102
RTVSPropertyOp28
 70
     1
102
RTVSPropertyOp29
 70
     1
102
RTVSPropertyOp30
 70
     1
102
RTVSPropertyOp31
 70
     1
102
RTVSPropertyOp32
 70
     1
  0
XRECORD
  5
23E
102
{ACAD_REACTORS
330
23D
102
}
330
23D
100
AcDbXrecord
280
     1
102
RTVSPropertyOp0
 70
     1
102
RTVSPropertyOp1
 70
     1
102
RTVSPropertyOp2
 70
     1
102
RTVSPropertyOp3
 70
     1
102
RTVSPropertyOp4
 70
     1
102
RTVSPropertyOp5
 70
     1
102
RTVSPropertyOp6
 70
     1
102
RTVSPropertyOp7
 70
     1
102
RTVSPropertyOp8
 70
     1
102
RTVSPropertyOp9
 70
     1
102
RTVSPropertyOp10
 70
     1
102
RTVSPropertyOp11
 70
     1
102
RTVSPropertyOp12
 70
     1
102
RTVSPropertyOp13
 70
     1
102
RTVSPropertyOp14
 70
     1
102
RTVSPropertyOp15
 70
     1
102
RTVSPropertyOp16
 70
     1
102
RTVSPropertyOp17
 70
     1
102
RTVSPropertyOp18
 70
     1
102
RTVSPropertyOp19
 70
     1
102
RTVSPropertyOp20
 70
     1
102
RTVSPropertyOp21
 70
     1
102
RTVSPropertyOp22
 70
     1
102
RTVSPropertyOp23
 70
     1
102
RTVSPropertyOp24
 70
     1
102
RTVSPropertyOp25
 70
     1
102
RTVSPropertyOp26
 70
     1
102
RTVSPropertyOp27
 70
     1
102
RTVSPropertyOp28
 70
     1
102
RTVSPropertyOp29
 70
     1
102
RTVSPropertyOp30
 70
     1
102
RTVSPropertyOp31
 70
     1
102
RTVSPropertyOp32
 70
     1
  0
XRECORD
  5
252
102
{ACAD_REACTORS
330
251
102
}
330
251
100
AcDbXrecord
280
     1
102
RTVSPropertyOp0
 70
     1
102
RTVSPropertyOp1
 70
     1
102
RTVSPropertyOp2
 70
     1
102
RTVSPropertyOp3
 70
     1
102
RTVSPropertyOp4
 70
     1
102
RTVSPropertyOp5
 70
     1
102
RTVSPropertyOp6
 70
     1
102
RTVSPropertyOp7
 70
     1
102
RTVSPropertyOp8
 70
     1
102
RTVSPropertyOp9
 70
     1
102
RTVSPropertyOp10
 70
     1
102
RTVSPropertyOp11
 70
     1
102
RTVSPropertyOp12
 70
     1
102
RTVSPropertyOp13
 70
     1
102
RTVSPropertyOp14
 70
     1
102
RTVSPropertyOp15
 70
     1
102
RTVSPropertyOp16
 70
     1
102
RTVSPropertyOp17
 70
     1
102
RTVSPropertyOp18
 70
     1
102
RTVSPropertyOp19
 70
     1
102
RTVSPropertyOp20
 70
     1
102
RTVSPropertyOp21
 70
     1
102
RTVSPropertyOp22
 70
     1
102
RTVSPropertyOp23
 70
     1
102
RTVSPropertyOp24
 70
     1
102
RTVSPropertyOp25
 70
     1
102
RTVSPropertyOp26
 70
     1
102
RTVSPropertyOp27
 70
     1
102
RTVSPropertyOp28
 70
     1
102
RTVSPropertyOp29
 70
     1
102
RTVSPropertyOp30
 70
     1
102
RTVSPropertyOp31
 70
     1
102
RTVSPropertyOp32
 70
     1
  0
XRECORD
  5
248
102
{ACAD_REACTORS
330
247
102
}
330
247
100
AcDbXrecord
280
     1
102
RTVSPropertyOp0
 70
     1
102
RTVSPropertyOp1
 70
     1
102
RTVSPropertyOp2
 70
     1
102
RTVSPropertyOp3
 70
     1
102
RTVSPropertyOp4
 70
     1
102
RTVSPropertyOp5
 70
     1
102
RTVSPropertyOp6
 70
     1
102
RTVSPropertyOp7
 70
     1
102
RTVSPropertyOp8
 70
     1
102
RTVSPropertyOp9
 70
     1
102
RTVSPropertyOp10
 70
     1
102
RTVSPropertyOp11
 70
     1
102
RTVSPropertyOp12
 70
     1
102
RTVSPropertyOp13
 70
     1
102
RTVSPropertyOp14
 70
     1
102
RTVSPropertyOp15
 70
     1
102
RTVSPropertyOp16
 70
     1
102
RTVSPropertyOp17
 70
     1
102
RTVSPropertyOp18
 70
     1
102
RTVSPropertyOp19
 70
     1
102
RTVSPropertyOp20
 70
     1
102
RTVSPropertyOp21
 70
     1
102
RTVSPropertyOp22
 70
     1
102
RTVSPropertyOp23
 70
     1
102
RTVSPropertyOp24
 70
     1
102
RTVSPropertyOp25
 70
     1
102
RTVSPropertyOp26
 70
     1
102
RTVSPropertyOp27
 70
     1
102
RTVSPropertyOp28
 70
     1
102
RTVSPropertyOp29
 70
     1
102
RTVSPropertyOp30
 70
     1
102
RTVSPropertyOp31
 70
     1
102
RTVSPropertyOp32
 70
     1
  0
XRECORD
  5
250
102
{ACAD_REACTORS
330
24F
102
}
330
24F
100
AcDbXrecord
280
     1
102
RTVSPropertyOp0
 70
     1
102
RTVSPropertyOp1
 70
     1
102
RTVSPropertyOp2
 70
     1
102
RTVSPropertyOp3
 70
     1
102
RTVSPropertyOp4
 70
     1
102
RTVSPropertyOp5
 70
     1
102
RTVSPropertyOp6
 70
     1
102
RTVSPropertyOp7
 70
     1
102
RTVSPropertyOp8
 70
     1
102
RTVSPropertyOp9
 70
     1
102
RTVSPropertyOp10
 70
     1
102
RTVSPropertyOp11
 70
     1
102
RTVSPropertyOp12
 70
     1
102
RTVSPropertyOp13
 70
     1
102
RTVSPropertyOp14
 70
     1
102
RTVSPropertyOp15
 70
     1
102
RTVSPropertyOp16
 70
     1
102
RTVSPropertyOp17
 70
     1
102
RTVSPropertyOp18
 70
     1
102
RTVSPropertyOp19
 70
     1
102
RTVSPropertyOp20
 70
     1
102
RTVSPropertyOp21
 70
     1
102
RTVSPropertyOp22
 70
     1
102
RTVSPropertyOp23
 70
     1
102
RTVSPropertyOp24
 70
     1
102
RTVSPropertyOp25
 70
     1
102
RTVSPropertyOp26
 70
     1
102
RTVSPropertyOp27
 70
     1
102
RTVSPropertyOp28
 70
     1
102
RTVSPropertyOp29
 70
     1
102
RTVSPropertyOp30
 70
     1
102
RTVSPropertyOp31
 70
     1
102
RTVSPropertyOp32
 70
     1
  0
ENDSEC
  0
EOF
